<?xml version="1.0" standalone="no"?><!DOCTYPE svg PUBLIC "-//W3C//DTD SVG 1.1//EN" "http://www.w3.org/Graphics/SVG/1.1/DTD/svg11.dtd" ><svg version="1.1" xmlns="http://www.w3.org/2000/svg"><defs><font horiz-adv-x="0" id="font"><font-face ascent="766" bbox="-106 -252 1063 860" cap-height="589" descent="-234" font-family="Copyright Klim Type Foundry" font-stretch="normal" font-style="normal" font-weight="700" units-per-em="1000" x-height="462" /><missing-glyph horiz-adv-x="221" /><glyph d="M412 136H183L137 0H10L224 589H376L590 0H460ZM217 236H377L346 324Q333 360 324 390Q315 420 310 442Q304 468 300 488H296Q291 468 284 442Q278 420 269 390Q260 360 248 325Z" glyph-name="A" horiz-adv-x="600" unicode="A" /><glyph d="M427 0V136H221L137 0H4L358 589H812V484H549V348H781V246H549V105H812V0ZM275 236H427V344Q427 419 430 460Q431 484 433 501H429Z" glyph-name="AE" horiz-adv-x="862" unicode="&#198;" /><glyph d="M427 0V136H221L137 0H4L358 589H812V484H549V348H781V246H549V105H812V0ZM275 236H427V344Q427 419 430 460Q431 484 433 501H429ZM493 649 557 785H709L602 649Z" glyph-name="AEacute" horiz-adv-x="862" unicode="&#508;" /><glyph d="M412 136H183L137 0H10L224 589H376L590 0H460ZM217 236H377L346 324Q333 360 324 390Q315 420 310 442Q304 468 300 488H296Q291 468 284 442Q278 420 269 390Q260 360 248 325ZM239 649 303 785H455L348 649Z" glyph-name="Aacute" horiz-adv-x="600" unicode="&#193;" /><glyph d="M412 136H183L137 0H10L224 589H376L590 0H460ZM217 236H377L346 324Q333 360 324 390Q315 420 310 442Q304 468 300 488H296Q291 468 284 442Q278 420 269 390Q260 360 248 325ZM298 645Q223 645 188 683.5Q153 722 153 788H243Q244 759 255.5 744Q267 729 298 729Q329 729 340.5 744Q352 759 354 788H443Q443 722 408 683.5Q373 645 298 645Z" glyph-name="Abreve" horiz-adv-x="600" unicode="&#258;" /><glyph d="M412 136H183L137 0H10L224 589H376L590 0H460ZM217 236H377L346 324Q333 360 324 390Q315 420 310 442Q304 468 300 488H296Q291 468 284 442Q278 420 269 390Q260 360 248 325ZM336 789 467 649H352L321 681Q309 693 304 703Q301 707 300 712H296Q295 707 292 703Q287 693 275 681L244 649H129L260 789Z" glyph-name="Acircumflex" horiz-adv-x="600" unicode="&#194;" /><glyph d="M412 136H183L137 0H10L224 589H376L590 0H460ZM217 236H377L346 324Q333 360 324 390Q315 420 310 442Q304 468 300 488H296Q291 468 284 442Q278 420 269 390Q260 360 248 325ZM123 720Q123 754 143.5 772Q164 790 192 790Q222 790 242.5 772Q263 754 263 720Q263 687 242.5 668.5Q222 650 192 650Q164 650 143.5 668.5Q123 687 123 720ZM334 719Q334 753 354 771Q374 789 403 789Q433 789 453 771Q473 753 473 719Q473 687 453 668.5Q433 650 403 650Q374 650 354 668.5Q334 687 334 719Z" glyph-name="Adieresis" horiz-adv-x="600" unicode="&#196;" /><glyph d="M412 136H183L137 0H10L224 589H376L590 0H460ZM217 236H377L346 324Q333 360 324 390Q315 420 310 442Q304 468 300 488H296Q291 468 284 442Q278 420 269 390Q260 360 248 325ZM252 649 145 785H297L361 649Z" glyph-name="Agrave" horiz-adv-x="600" unicode="&#192;" /><glyph d="M412 136H183L137 0H10L224 589H376L590 0H460ZM217 236H377L346 324Q333 360 324 390Q315 420 310 442Q304 468 300 488H296Q291 468 284 442Q278 420 269 390Q260 360 248 325ZM154 667V763H443V667Z" glyph-name="Amacron" horiz-adv-x="600" unicode="&#256;" /><glyph d="M323 -101Q323 -70 335 -46.5Q347 -23 365 -6.5Q383 10 405 20.5Q427 31 447 37L412 136H183L137 0H10L224 589H376L590 0H521Q502 0 484 -5Q466 -10 452.5 -20Q439 -30 430.5 -45Q422 -60 422 -80Q422 -105 435.5 -119Q449 -133 472 -133Q492 -133 508 -124.5Q524 -116 539 -99L568 -159Q527 -211 447 -211Q422 -211 399.5 -205Q377 -199 360 -185.5Q343 -172 333 -151Q323 -130 323 -101ZM217 236H377L346 324Q333 360 324 390Q315 420 310 442Q304 468 300 488H296Q291 468 284 442Q278 420 269 390Q260 360 248 325Z" glyph-name="Aogonek" horiz-adv-x="600" unicode="&#260;" /><glyph d="M412 136H183L137 0H10L224 589H376L590 0H460ZM217 236H377L346 324Q333 360 324 390Q315 420 310 442Q304 468 300 488H296Q291 468 284 442Q278 420 269 390Q260 360 248 325ZM298 632Q244 632 215.5 663.5Q187 695 187 740Q187 761 195 780Q203 799 217.5 813Q232 827 252.5 835.5Q273 844 298 844Q323 844 343.5 835.5Q364 827 378.5 813Q393 799 401 780Q409 761 409 740Q409 695 380.5 663.5Q352 632 298 632ZM298 790Q274 790 260.5 775.5Q247 761 247 738Q247 718 260 703.5Q273 689 298 689Q323 689 336 703.5Q349 718 349 738Q349 761 335.5 775.5Q322 790 298 790Z" glyph-name="Aring" horiz-adv-x="600" unicode="&#197;" /><glyph d="M412 136H183L137 0H10L224 589H376L590 0H460ZM217 236H377L346 324Q333 360 324 390Q315 420 310 442Q304 468 300 488H296Q291 468 284 442Q278 420 269 390Q260 360 248 325ZM373 650Q348 650 333 656Q318 662 299 673Q278 685 266 691.5Q254 698 241 698Q225 698 215.5 687Q206 676 210 650H142Q130 677 131 703Q132 729 143.5 750Q155 771 176 783.5Q197 796 225 796Q248 796 264 790Q280 784 297 774Q319 761 331 754.5Q343 748 356 748Q370 748 378.5 758Q387 768 383 795H454Q466 766 465.5 739.5Q465 713 454 693Q443 673 422.5 661.5Q402 650 373 650Z" glyph-name="Atilde" horiz-adv-x="600" unicode="&#195;" /><glyph d="M382 300Q443 293 477.5 256.5Q512 220 512 162Q512 88 461.5 44Q411 0 303 0H79V589H305Q395 589 441.5 550.5Q488 512 488 440Q488 383 459 349Q430 315 382 304ZM283 339Q321 339 344 356Q367 373 367 413Q367 453 344 470Q321 487 279 487H200V339ZM200 102H300Q342 102 365.5 119Q389 136 389 178Q389 212 367.5 230.5Q346 249 299 249H200Z" glyph-name="B" horiz-adv-x="557" unicode="B" /><glyph d="M556 119Q536 86 512.5 61Q489 36 459 20Q429 4 392 -4Q355 -12 308 -12Q249 -12 200 8Q151 28 116 67Q81 106 61.5 163Q42 220 42 294Q42 368 62 425Q82 482 118.5 521Q155 560 207.5 580.5Q260 601 326 601Q414 601 470.5 563.5Q527 526 559 454L443 398Q428 445 398.5 470Q369 495 321 495Q249 495 208 441Q167 387 167 292Q167 199 205 147Q243 95 320 95Q365 95 398.5 116Q432 137 455 182Z" glyph-name="C" horiz-adv-x="578" unicode="C" /><glyph d="M556 119Q536 86 512.5 61Q489 36 459 20Q429 4 392 -4Q355 -12 308 -12Q249 -12 200 8Q151 28 116 67Q81 106 61.5 163Q42 220 42 294Q42 368 62 425Q82 482 118.5 521Q155 560 207.5 580.5Q260 601 326 601Q414 601 470.5 563.5Q527 526 559 454L443 398Q428 445 398.5 470Q369 495 321 495Q249 495 208 441Q167 387 167 292Q167 199 205 147Q243 95 320 95Q365 95 398.5 116Q432 137 455 182ZM259 649 323 785H475L368 649Z" glyph-name="Cacute" horiz-adv-x="578" unicode="&#262;" /><glyph d="M556 119Q536 86 512.5 61Q489 36 459 20Q429 4 392 -4Q355 -12 308 -12Q249 -12 200 8Q151 28 116 67Q81 106 61.5 163Q42 220 42 294Q42 368 62 425Q82 482 118.5 521Q155 560 207.5 580.5Q260 601 326 601Q414 601 470.5 563.5Q527 526 559 454L443 398Q428 445 398.5 470Q369 495 321 495Q249 495 208 441Q167 387 167 292Q167 199 205 147Q243 95 320 95Q365 95 398.5 116Q432 137 455 182ZM274 647 143 787H258L289 755Q296 747 300 741.5Q304 736 306 732Q309 728 310 724H314Q315 728 318 732Q320 736 324 741.5Q328 747 335 755L366 787H481L350 647Z" glyph-name="Ccaron" horiz-adv-x="578" unicode="&#268;" /><glyph d="M427 -120Q427 -167 395 -189Q363 -211 316 -211Q282 -211 256 -201Q230 -191 216 -174L240 -115Q269 -150 305 -150Q337 -150 337 -121Q337 -85 281 -81L287 -11Q232 -8 187 14Q142 36 109.5 74.5Q77 113 59.5 168Q42 223 42 294Q42 368 62 425Q82 482 118.5 521Q155 560 207.5 580.5Q260 601 326 601Q414 601 470.5 563.5Q527 526 559 454L443 398Q428 445 398.5 470Q369 495 321 495Q249 495 208 441Q167 387 167 292Q167 199 205 147Q243 95 320 95Q365 95 398.5 116Q432 137 455 182L556 119Q519 58 469.5 26Q420 -6 341 -11L339 -38Q427 -44 427 -120Z" glyph-name="Ccedilla" horiz-adv-x="578" unicode="&#199;" /><glyph d="M556 119Q536 86 512.5 61Q489 36 459 20Q429 4 392 -4Q355 -12 308 -12Q249 -12 200 8Q151 28 116 67Q81 106 61.5 163Q42 220 42 294Q42 368 62 425Q82 482 118.5 521Q155 560 207.5 580.5Q260 601 326 601Q414 601 470.5 563.5Q527 526 559 454L443 398Q428 445 398.5 470Q369 495 321 495Q249 495 208 441Q167 387 167 292Q167 199 205 147Q243 95 320 95Q365 95 398.5 116Q432 137 455 182ZM360 789 491 649H376L345 681Q333 693 328 703Q325 707 324 712H320Q319 707 316 703Q311 693 299 681L268 649H153L284 789Z" glyph-name="Ccircumflex" horiz-adv-x="578" unicode="&#264;" /><glyph d="M556 119Q536 86 512.5 61Q489 36 459 20Q429 4 392 -4Q355 -12 308 -12Q249 -12 200 8Q151 28 116 67Q81 106 61.5 163Q42 220 42 294Q42 368 62 425Q82 482 118.5 521Q155 560 207.5 580.5Q260 601 326 601Q414 601 470.5 563.5Q527 526 559 454L443 398Q428 445 398.5 470Q369 495 321 495Q249 495 208 441Q167 387 167 292Q167 199 205 147Q243 95 320 95Q365 95 398.5 116Q432 137 455 182ZM240 720Q240 755 261.5 773.5Q283 792 314 792Q347 792 369 773.5Q391 755 391 720Q391 687 369 668Q347 649 314 649Q283 649 261.5 668Q240 687 240 720Z" glyph-name="Cdotaccent" horiz-adv-x="578" unicode="&#266;" /><glyph d="M266 102Q307 102 340 112Q373 122 396 144.5Q419 167 431.5 204Q444 241 444 294Q444 350 431.5 387Q419 424 396.5 446.5Q374 469 342.5 478Q311 487 274 487H200V102ZM79 0V589H285Q346 589 398.5 573Q451 557 489 522.5Q527 488 549 433.5Q571 379 571 301Q571 219 548.5 162Q526 105 486.5 69Q447 33 393.5 16.5Q340 0 278 0Z" glyph-name="D" horiz-adv-x="613" unicode="D" /><glyph d="M266 102Q307 102 340 112Q373 122 396 144.5Q419 167 431.5 204Q444 241 444 294Q444 350 431.5 387Q419 424 396.5 446.5Q374 469 342.5 478Q311 487 274 487H200V102ZM79 0V589H285Q346 589 398.5 573Q451 557 489 522.5Q527 488 549 433.5Q571 379 571 301Q571 219 548.5 162Q526 105 486.5 69Q447 33 393.5 16.5Q340 0 278 0ZM242 647 111 787H226L257 755Q264 747 268 741.5Q272 736 274 732Q277 728 278 724H282Q283 728 286 732Q288 736 292 741.5Q296 747 303 755L334 787H449L318 647Z" glyph-name="Dcaron" horiz-adv-x="613" unicode="&#270;" /><glyph d="M79 0V247H16V346H79V589H285Q346 589 398.5 573Q451 557 489 522.5Q527 488 549 433.5Q571 379 571 301Q571 219 548.5 162Q526 105 486.5 69Q447 33 393.5 16.5Q340 0 278 0ZM266 102Q307 102 340 112Q373 122 396 144.5Q419 167 431.5 204Q444 241 444 294Q444 350 431.5 387Q419 424 396.5 446.5Q374 469 342.5 478Q311 487 274 487H200V346H299V247H200V102Z" glyph-name="Dcroat" horiz-adv-x="613" unicode="&#272;" /><glyph d="M463 0H79V589H463V484H200V348H432V246H200V105H463Z" glyph-name="E" horiz-adv-x="513" unicode="E" /><glyph d="M463 0H79V589H463V484H200V348H432V246H200V105H463ZM210 649 274 785H426L319 649Z" glyph-name="Eacute" horiz-adv-x="513" unicode="&#201;" /><glyph d="M463 0H79V589H463V484H200V348H432V246H200V105H463ZM264 645Q189 645 154 683.5Q119 722 119 788H209Q210 759 221.5 744Q233 729 264 729Q295 729 306.5 744Q318 759 320 788H409Q409 722 374 683.5Q339 645 264 645Z" glyph-name="Ebreve" horiz-adv-x="513" unicode="&#276;" /><glyph d="M463 0H79V589H463V484H200V348H432V246H200V105H463ZM228 647 97 787H212L243 755Q250 747 254 741.5Q258 736 260 732Q263 728 264 724H268Q269 728 272 732Q274 736 278 741.5Q282 747 289 755L320 787H435L304 647Z" glyph-name="Ecaron" horiz-adv-x="513" unicode="&#282;" /><glyph d="M463 0H79V589H463V484H200V348H432V246H200V105H463ZM310 789 441 649H326L295 681Q283 693 278 703Q275 707 274 712H270Q269 707 266 703Q261 693 249 681L218 649H103L234 789Z" glyph-name="Ecircumflex" horiz-adv-x="513" unicode="&#202;" /><glyph d="M463 0H79V589H463V484H200V348H432V246H200V105H463ZM94 720Q94 754 114.5 772Q135 790 163 790Q193 790 213.5 772Q234 754 234 720Q234 687 213.5 668.5Q193 650 163 650Q135 650 114.5 668.5Q94 687 94 720ZM305 719Q305 753 325 771Q345 789 374 789Q404 789 424 771Q444 753 444 719Q444 687 424 668.5Q404 650 374 650Q345 650 325 668.5Q305 687 305 719Z" glyph-name="Edieresis" horiz-adv-x="513" unicode="&#203;" /><glyph d="M463 0H79V589H463V484H200V348H432V246H200V105H463ZM193 719Q193 754 214.5 772.5Q236 791 267 791Q300 791 322 772.5Q344 754 344 719Q344 686 322 667Q300 648 267 648Q236 648 214.5 667Q193 686 193 719Z" glyph-name="Edotaccent" horiz-adv-x="513" unicode="&#278;" /><glyph d="M463 0H79V589H463V484H200V348H432V246H200V105H463ZM224 649 117 785H269L333 649Z" glyph-name="Egrave" horiz-adv-x="513" unicode="&#200;" /><glyph d="M463 0H79V589H463V484H200V348H432V246H200V105H463ZM127 667V763H416V667Z" glyph-name="Emacron" horiz-adv-x="513" unicode="&#274;" /><glyph d="M588 -28Q588 -80 571 -115Q554 -150 526.5 -171.5Q499 -193 462.5 -202Q426 -211 387 -211Q327 -211 284.5 -192Q242 -173 213 -143L281 -46Q299 -76 327.5 -93Q356 -110 384 -110Q432 -110 449.5 -83Q467 -56 467 -5V11L258 299Q244 318 233 335Q222 352 214 366Q205 382 198 395H194Q195 378 197 358Q198 340 199 315.5Q200 291 200 260V0H79V589H196L412 287Q424 269 434 252.5Q444 236 452 224Q461 209 467 197H471Q470 213 469 233Q468 250 467.5 273.5Q467 297 467 326V589H588Z" glyph-name="Eng" horiz-adv-x="667" unicode="&#330;" /><glyph d="M463 0H434Q389 0 364.5 -20Q340 -40 340 -77Q340 -104 353.5 -118.5Q367 -133 390 -133Q410 -133 426 -124.5Q442 -116 457 -99L486 -159Q445 -211 365 -211Q340 -211 317.5 -205Q295 -199 278 -185.5Q261 -172 251 -151Q241 -130 241 -101Q241 -63 259 -39Q277 -15 306 0H79V589H463V484H200V348H432V246H200V105H463Z" glyph-name="Eogonek" horiz-adv-x="513" unicode="&#280;" /><glyph d="M79 0V247H16V346H79V589H285Q346 589 398.5 573Q451 557 489 522.5Q527 488 549 433.5Q571 379 571 301Q571 219 548.5 162Q526 105 486.5 69Q447 33 393.5 16.5Q340 0 278 0ZM266 102Q307 102 340 112Q373 122 396 144.5Q419 167 431.5 204Q444 241 444 294Q444 350 431.5 387Q419 424 396.5 446.5Q374 469 342.5 478Q311 487 274 487H200V346H299V247H200V102Z" glyph-name="Eth" horiz-adv-x="613" unicode="&#208;" /><glyph d="M219 213Q232 156 264 125.5Q296 95 349 95Q389 95 418.5 116Q448 137 469 182L568 119Q530 52 477 20Q424 -12 335 -12Q239 -12 174 46Q109 104 90 213H34V265H85Q84 272 84 279Q84 286 84 294V316H34V368H89Q106 481 174.5 541Q243 601 351 601Q434 601 488 563.5Q542 526 571 454L458 398Q444 445 418 470Q392 495 349 495Q298 495 265 461.5Q232 428 219 368H397L387 316H213Q212 310 212 304Q212 298 212 292Q212 285 212 278Q212 271 213 265H380L370 213Z" glyph-name="Euro" horiz-adv-x="585" unicode="&#8364;" /><glyph d="M79 0V589H451V484H200V330H420V228H200V0Z" glyph-name="F" horiz-adv-x="484" unicode="F" /><glyph d="M564 311V0H483L465 69Q444 28 400 8Q356 -12 303 -12Q246 -12 198 7Q150 26 115.5 63.5Q81 101 61.5 158Q42 215 42 292Q42 366 62 423.5Q82 481 118.5 520.5Q155 560 207.5 580.5Q260 601 326 601Q414 601 472 563.5Q530 526 559 454L443 398Q428 447 396.5 471Q365 495 321 495Q292 495 264.5 484Q237 473 215 448.5Q193 424 180 385Q167 346 167 291Q167 248 175.5 210.5Q184 173 202.5 145.5Q221 118 250 102.5Q279 87 320 87Q380 87 413.5 113Q447 139 447 184V212H316V311Z" glyph-name="G" horiz-adv-x="623" unicode="G" /><glyph d="M564 311V0H483L465 69Q444 28 400 8Q356 -12 303 -12Q246 -12 198 7Q150 26 115.5 63.5Q81 101 61.5 158Q42 215 42 292Q42 366 62 423.5Q82 481 118.5 520.5Q155 560 207.5 580.5Q260 601 326 601Q414 601 472 563.5Q530 526 559 454L443 398Q428 447 396.5 471Q365 495 321 495Q292 495 264.5 484Q237 473 215 448.5Q193 424 180 385Q167 346 167 291Q167 248 175.5 210.5Q184 173 202.5 145.5Q221 118 250 102.5Q279 87 320 87Q380 87 413.5 113Q447 139 447 184V212H316V311ZM327 645Q252 645 217 683.5Q182 722 182 788H272Q273 759 284.5 744Q296 729 327 729Q358 729 369.5 744Q381 759 383 788H472Q472 722 437 683.5Q402 645 327 645Z" glyph-name="Gbreve" horiz-adv-x="623" unicode="&#286;" /><glyph d="M564 311V0H483L465 69Q444 28 400 8Q356 -12 303 -12Q246 -12 198 7Q150 26 115.5 63.5Q81 101 61.5 158Q42 215 42 292Q42 366 62 423.5Q82 481 118.5 520.5Q155 560 207.5 580.5Q260 601 326 601Q414 601 472 563.5Q530 526 559 454L443 398Q428 447 396.5 471Q365 495 321 495Q292 495 264.5 484Q237 473 215 448.5Q193 424 180 385Q167 346 167 291Q167 248 175.5 210.5Q184 173 202.5 145.5Q221 118 250 102.5Q279 87 320 87Q380 87 413.5 113Q447 139 447 184V212H316V311ZM364 789 495 649H380L349 681Q337 693 332 703Q329 707 328 712H324Q323 707 320 703Q315 693 303 681L272 649H157L288 789Z" glyph-name="Gcircumflex" horiz-adv-x="623" unicode="&#284;" /><glyph d="M564 311V0H483L465 69Q444 28 400 8Q356 -12 303 -12Q246 -12 198 7Q150 26 115.5 63.5Q81 101 61.5 158Q42 215 42 292Q42 366 62 423.5Q82 481 118.5 520.5Q155 560 207.5 580.5Q260 601 326 601Q414 601 472 563.5Q530 526 559 454L443 398Q428 447 396.5 471Q365 495 321 495Q292 495 264.5 484Q237 473 215 448.5Q193 424 180 385Q167 346 167 291Q167 248 175.5 210.5Q184 173 202.5 145.5Q221 118 250 102.5Q279 87 320 87Q380 87 413.5 113Q447 139 447 184V212H316V311ZM406 -141Q406 -201 370.5 -226.5Q335 -252 271 -252V-210Q302 -209 318.5 -201Q335 -193 335 -170Q307 -175 286.5 -161Q266 -147 266 -117Q266 -87 285 -71.5Q304 -56 332 -56Q364 -56 385 -79.5Q406 -103 406 -141Z" glyph-name="Gcommaaccent" horiz-adv-x="623" unicode="&#290;" /><glyph d="M564 311V0H483L465 69Q444 28 400 8Q356 -12 303 -12Q246 -12 198 7Q150 26 115.5 63.5Q81 101 61.5 158Q42 215 42 292Q42 366 62 423.5Q82 481 118.5 520.5Q155 560 207.5 580.5Q260 601 326 601Q414 601 472 563.5Q530 526 559 454L443 398Q428 447 396.5 471Q365 495 321 495Q292 495 264.5 484Q237 473 215 448.5Q193 424 180 385Q167 346 167 291Q167 248 175.5 210.5Q184 173 202.5 145.5Q221 118 250 102.5Q279 87 320 87Q380 87 413.5 113Q447 139 447 184V212H316V311ZM252 727Q252 762 273.5 780.5Q295 799 326 799Q359 799 381 780.5Q403 762 403 727Q403 694 381 675Q359 656 326 656Q295 656 273.5 675Q252 694 252 727Z" glyph-name="Gdotaccent" horiz-adv-x="623" unicode="&#288;" /><glyph d="M79 0V589H200V352H445V589H566V0H445V246H200V0Z" glyph-name="H" horiz-adv-x="645" unicode="H" /><glyph d="M9 509H84V589H206V509H450V589H571V509H648V414H571V0H450V240H206V0H84V414H9ZM450 339V414H206V339Z" glyph-name="Hbar" horiz-adv-x="657" unicode="&#294;" /><glyph d="M79 0V589H200V352H445V589H566V0H445V246H200V0ZM361 789 492 649H377L346 681Q334 693 329 703Q326 707 325 712H321Q320 707 317 703Q312 693 300 681L269 649H154L285 789Z" glyph-name="Hcircumflex" horiz-adv-x="645" unicode="&#292;" /><glyph d="M200 589V0H79V589Z" glyph-name="I" horiz-adv-x="279" unicode="I" /><glyph d="M200 589V0H79V589ZM80 649 144 785H296L189 649Z" glyph-name="Iacute" horiz-adv-x="279" unicode="&#205;" /><glyph d="M200 589V0H79V589ZM140 645Q65 645 30 683.5Q-5 722 -5 788H85Q86 759 97.5 744Q109 729 140 729Q171 729 182.5 744Q194 759 196 788H285Q285 722 250 683.5Q215 645 140 645Z" glyph-name="Ibreve" horiz-adv-x="279" unicode="&#300;" /><glyph d="M200 589V0H79V589ZM178 789 309 649H194L163 681Q151 693 146 703Q143 707 142 712H138Q137 707 134 703Q129 693 117 681L86 649H-29L102 789Z" glyph-name="Icircumflex" horiz-adv-x="279" unicode="&#206;" /><glyph d="M200 589V0H79V589ZM-38 720Q-38 754 -17.5 772Q3 790 31 790Q61 790 81.5 772Q102 754 102 720Q102 687 81.5 668.5Q61 650 31 650Q3 650 -17.5 668.5Q-38 687 -38 720ZM173 719Q173 753 193 771Q213 789 242 789Q272 789 292 771Q312 753 312 719Q312 687 292 668.5Q272 650 242 650Q213 650 193 668.5Q173 687 173 719Z" glyph-name="Idieresis" horiz-adv-x="279" unicode="&#207;" /><glyph d="M200 589V0H79V589ZM65 721Q65 756 86.5 774.5Q108 793 139 793Q172 793 194 774.5Q216 756 216 721Q216 688 194 669Q172 650 139 650Q108 650 86.5 669Q65 688 65 721Z" glyph-name="Idotaccent" horiz-adv-x="279" unicode="&#304;" /><glyph d="M200 589V0H79V589ZM90 649 -17 785H135L199 649Z" glyph-name="Igrave" horiz-adv-x="279" unicode="&#204;" /><glyph d="M200 589V0H79V589ZM-5 667V763H284V667Z" glyph-name="Imacron" horiz-adv-x="279" unicode="&#298;" /><glyph d="M2 -101Q2 -56 25.5 -28Q49 0 79 16V589H200V0Q181 0 163 -5Q145 -10 131.5 -20Q118 -30 109.5 -45Q101 -60 101 -80Q101 -105 114.5 -119Q128 -133 152 -133Q190 -133 218 -99L247 -159Q206 -211 126 -211Q101 -211 78.5 -205Q56 -199 39 -185.5Q22 -172 12 -151Q2 -130 2 -101Z" glyph-name="Iogonek" horiz-adv-x="279" unicode="&#302;" /><glyph d="M200 589V0H79V589ZM215 650Q190 650 175 656Q160 662 141 673Q120 685 108 691.5Q96 698 83 698Q67 698 57.5 687Q48 676 52 650H-16Q-28 677 -27 703Q-26 729 -14.5 750Q-3 771 18 783.5Q39 796 67 796Q90 796 106 790Q122 784 139 774Q161 761 173 754.5Q185 748 198 748Q212 748 220.5 758Q229 768 225 795H296Q308 766 307.5 739.5Q307 713 296 693Q285 673 264.5 661.5Q244 650 215 650Z" glyph-name="Itilde" horiz-adv-x="279" unicode="&#296;" /><glyph d="M396 589V171Q396 120 380 85.5Q364 51 337 29Q310 7 273.5 -2.5Q237 -12 197 -12Q125 -12 76.5 17.5Q28 47 0 102L91 180Q111 133 134.5 110.5Q158 88 196 88Q243 88 259 115.5Q275 143 275 194V589Z" glyph-name="J" horiz-adv-x="458" unicode="J" /><glyph d="M396 589V171Q396 120 380 85.5Q364 51 337 29Q310 7 273.5 -2.5Q237 -12 197 -12Q125 -12 76.5 17.5Q28 47 0 102L91 180Q111 133 134.5 110.5Q158 88 196 88Q243 88 259 115.5Q275 143 275 194V589ZM371 789 502 649H387L356 681Q344 693 339 703Q336 707 335 712H331Q330 707 327 703Q322 693 310 681L279 649H164L295 789Z" glyph-name="Jcircumflex" horiz-adv-x="458" unicode="&#308;" /><glyph d="M407 0 239 246H200V0H79V589H200V352H241L395 589H535L343 304L552 0Z" glyph-name="K" horiz-adv-x="566" unicode="K" /><glyph d="M407 0 239 246H200V0H79V589H200V352H241L395 589H535L343 304L552 0ZM356 -141Q356 -201 320.5 -226.5Q285 -252 221 -252V-210Q252 -209 268.5 -201Q285 -193 285 -170Q257 -175 236.5 -161Q216 -147 216 -117Q216 -87 235 -71.5Q254 -56 282 -56Q314 -56 335 -79.5Q356 -103 356 -141Z" glyph-name="Kcommaaccent" horiz-adv-x="566" unicode="&#310;" /><glyph d="M200 589V105H442V0H79V589Z" glyph-name="L" horiz-adv-x="468" unicode="L" /><glyph d="M200 589V105H442V0H79V589ZM84 649 148 785H300L193 649Z" glyph-name="Lacute" horiz-adv-x="468" unicode="&#313;" /><glyph d="M200 589V105H442V0H79V589ZM389 429H303L319 618H445Z" glyph-name="Lcaron" horiz-adv-x="468" unicode="&#317;" /><glyph d="M200 589V105H442V0H79V589ZM340 -141Q340 -201 304.5 -226.5Q269 -252 205 -252V-210Q236 -209 252.5 -201Q269 -193 269 -170Q241 -175 220.5 -161Q200 -147 200 -117Q200 -87 219 -71.5Q238 -56 266 -56Q298 -56 319 -79.5Q340 -103 340 -141Z" glyph-name="Lcommaaccent" horiz-adv-x="468" unicode="&#315;" /><glyph d="M200 589V105H442V0H79V589ZM265 330Q265 365 288 388.5Q311 412 344 412Q379 412 402 388.5Q425 365 425 330Q425 297 402 274.5Q379 252 344 252Q311 252 288 274.5Q265 297 265 330Z" glyph-name="Ldot" horiz-adv-x="468" unicode="&#319;" /><glyph d="M30 297 90 318V589H211V362L348 411V326L211 277V105H453V0H90V235L30 214Z" glyph-name="Lslash" horiz-adv-x="479" unicode="&#321;" /><glyph d="M334 139 243 297Q231 317 222.5 334Q214 351 209 364Q203 378 199 390H195Q196 379 197 364Q198 351 199 332.5Q200 314 200 288V0H79V589H207L327 366Q338 346 345.5 331Q353 316 358 305Q363 293 365 284H369Q372 293 377 305Q382 316 389 331Q396 346 407 366L528 589H653V0H532V288Q532 338 535 364Q536 379 538 390H534Q529 378 523 364Q518 351 509.5 334Q501 317 489 297L398 139Z" glyph-name="M" horiz-adv-x="732" unicode="M" /><glyph d="M412 287Q424 269 434 252.5Q444 236 452 224Q461 209 467 197H471Q470 213 469 233Q468 250 467.5 273.5Q467 297 467 326V589H588V0H475L258 299Q244 318 233 335Q222 352 214 366Q205 382 198 395H194Q195 378 197 358Q198 340 199 315.5Q200 291 200 260V0H79V589H196Z" glyph-name="N" horiz-adv-x="667" unicode="N" /><glyph glyph-name="NULL" horiz-adv-x="0" /><glyph d="M412 287Q424 269 434 252.5Q444 236 452 224Q461 209 467 197H471Q470 213 469 233Q468 250 467.5 273.5Q467 297 467 326V589H588V0H475L258 299Q244 318 233 335Q222 352 214 366Q205 382 198 395H194Q195 378 197 358Q198 340 199 315.5Q200 291 200 260V0H79V589H196ZM272 649 336 785H488L381 649Z" glyph-name="Nacute" horiz-adv-x="667" unicode="&#323;" /><glyph d="M412 287Q424 269 434 252.5Q444 236 452 224Q461 209 467 197H471Q470 213 469 233Q468 250 467.5 273.5Q467 297 467 326V589H588V0H475L258 299Q244 318 233 335Q222 352 214 366Q205 382 198 395H194Q195 378 197 358Q198 340 199 315.5Q200 291 200 260V0H79V589H196ZM296 646 165 786H280L311 754Q318 746 322 740.5Q326 735 328 731Q331 727 332 723H336Q337 727 340 731Q342 735 346 740.5Q350 746 357 754L388 786H503L372 646Z" glyph-name="Ncaron" horiz-adv-x="667" unicode="&#327;" /><glyph d="M412 287Q424 269 434 252.5Q444 236 452 224Q461 209 467 197H471Q470 213 469 233Q468 250 467.5 273.5Q467 297 467 326V589H588V0H475L258 299Q244 318 233 335Q222 352 214 366Q205 382 198 395H194Q195 378 197 358Q198 340 199 315.5Q200 291 200 260V0H79V589H196ZM413 -141Q413 -201 377.5 -226.5Q342 -252 278 -252V-210Q309 -209 325.5 -201Q342 -193 342 -170Q314 -175 293.5 -161Q273 -147 273 -117Q273 -87 292 -71.5Q311 -56 339 -56Q371 -56 392 -79.5Q413 -103 413 -141Z" glyph-name="Ncommaaccent" horiz-adv-x="667" unicode="&#325;" /><glyph d="M412 287Q424 269 434 252.5Q444 236 452 224Q461 209 467 197H471Q470 213 469 233Q468 250 467.5 273.5Q467 297 467 326V589H588V0H475L258 299Q244 318 233 335Q222 352 214 366Q205 382 198 395H194Q195 378 197 358Q198 340 199 315.5Q200 291 200 260V0H79V589H196ZM408 650Q383 650 368 656Q353 662 334 673Q313 685 301 691.5Q289 698 276 698Q260 698 250.5 687Q241 676 245 650H177Q165 677 166 703Q167 729 178.5 750Q190 771 211 783.5Q232 796 260 796Q283 796 299 790Q315 784 332 774Q354 761 366 754.5Q378 748 391 748Q405 748 413.5 758Q422 768 418 795H489Q501 766 500.5 739.5Q500 713 489 693Q478 673 457.5 661.5Q437 650 408 650Z" glyph-name="Ntilde" horiz-adv-x="667" unicode="&#209;" /><glyph d="M317 -12Q189 -12 115.5 66.5Q42 145 42 294Q42 443 115.5 522Q189 601 317 601Q445 601 518.5 522Q592 443 592 294Q592 145 518.5 66.5Q445 -12 317 -12ZM317 493Q242 493 205 440Q168 387 168 293Q168 199 205 146Q242 93 317 93Q392 93 428.5 146Q465 199 465 293Q465 387 428 440Q391 493 317 493Z" glyph-name="O" horiz-adv-x="634" unicode="O" /><glyph d="M317 -12Q189 -12 115.5 66.5Q42 145 42 294Q42 443 115.5 522Q189 601 317 601Q365 601 407 589H812V484H543Q579 430 588 348H781V246H589Q581 160 543 105H812V0H407Q365 -12 317 -12ZM317 493Q242 493 206 440Q170 387 170 293Q170 199 206 146Q242 93 317 93Q392 93 428 146Q464 199 464 293Q464 387 427.5 440Q391 493 317 493Z" glyph-name="OE" horiz-adv-x="862" unicode="&#338;" /><glyph d="M317 -12Q189 -12 115.5 66.5Q42 145 42 294Q42 443 115.5 522Q189 601 317 601Q445 601 518.5 522Q592 443 592 294Q592 145 518.5 66.5Q445 -12 317 -12ZM317 493Q242 493 205 440Q168 387 168 293Q168 199 205 146Q242 93 317 93Q392 93 428.5 146Q465 199 465 293Q465 387 428 440Q391 493 317 493ZM256 649 320 785H472L365 649Z" glyph-name="Oacute" horiz-adv-x="634" unicode="&#211;" /><glyph d="M317 -12Q189 -12 115.5 66.5Q42 145 42 294Q42 443 115.5 522Q189 601 317 601Q445 601 518.5 522Q592 443 592 294Q592 145 518.5 66.5Q445 -12 317 -12ZM317 493Q242 493 205 440Q168 387 168 293Q168 199 205 146Q242 93 317 93Q392 93 428.5 146Q465 199 465 293Q465 387 428 440Q391 493 317 493ZM317 645Q242 645 207 683.5Q172 722 172 788H262Q263 759 274.5 744Q286 729 317 729Q348 729 359.5 744Q371 759 373 788H462Q462 722 427 683.5Q392 645 317 645Z" glyph-name="Obreve" horiz-adv-x="634" unicode="&#334;" /><glyph d="M317 -12Q189 -12 115.5 66.5Q42 145 42 294Q42 443 115.5 522Q189 601 317 601Q445 601 518.5 522Q592 443 592 294Q592 145 518.5 66.5Q445 -12 317 -12ZM317 493Q242 493 205 440Q168 387 168 293Q168 199 205 146Q242 93 317 93Q392 93 428.5 146Q465 199 465 293Q465 387 428 440Q391 493 317 493ZM355 789 486 649H371L340 681Q328 693 323 703Q320 707 319 712H315Q314 707 311 703Q306 693 294 681L263 649H148L279 789Z" glyph-name="Ocircumflex" horiz-adv-x="634" unicode="&#212;" /><glyph d="M317 -12Q189 -12 115.5 66.5Q42 145 42 294Q42 443 115.5 522Q189 601 317 601Q445 601 518.5 522Q592 443 592 294Q592 145 518.5 66.5Q445 -12 317 -12ZM317 493Q242 493 205 440Q168 387 168 293Q168 199 205 146Q242 93 317 93Q392 93 428.5 146Q465 199 465 293Q465 387 428 440Q391 493 317 493ZM140 720Q140 754 160.5 772Q181 790 209 790Q239 790 259.5 772Q280 754 280 720Q280 687 259.5 668.5Q239 650 209 650Q181 650 160.5 668.5Q140 687 140 720ZM351 719Q351 753 371 771Q391 789 420 789Q450 789 470 771Q490 753 490 719Q490 687 470 668.5Q450 650 420 650Q391 650 371 668.5Q351 687 351 719Z" glyph-name="Odieresis" horiz-adv-x="634" unicode="&#214;" /><glyph d="M317 -12Q189 -12 115.5 66.5Q42 145 42 294Q42 443 115.5 522Q189 601 317 601Q445 601 518.5 522Q592 443 592 294Q592 145 518.5 66.5Q445 -12 317 -12ZM317 493Q242 493 205 440Q168 387 168 293Q168 199 205 146Q242 93 317 93Q392 93 428.5 146Q465 199 465 293Q465 387 428 440Q391 493 317 493ZM269 649 162 785H314L378 649Z" glyph-name="Ograve" horiz-adv-x="634" unicode="&#210;" /><glyph d="M317 -12Q189 -12 115.5 66.5Q42 145 42 294Q42 443 115.5 522Q189 601 317 601Q445 601 518.5 522Q592 443 592 294Q592 145 518.5 66.5Q445 -12 317 -12ZM317 493Q242 493 205 440Q168 387 168 293Q168 199 205 146Q242 93 317 93Q392 93 428.5 146Q465 199 465 293Q465 387 428 440Q391 493 317 493ZM191 649 246 785H377L277 649ZM350 649 422 785H559L443 649Z" glyph-name="Ohungarumlaut" horiz-adv-x="634" unicode="&#336;" /><glyph d="M317 -12Q189 -12 115.5 66.5Q42 145 42 294Q42 443 115.5 522Q189 601 317 601Q445 601 518.5 522Q592 443 592 294Q592 145 518.5 66.5Q445 -12 317 -12ZM317 493Q242 493 205 440Q168 387 168 293Q168 199 205 146Q242 93 317 93Q392 93 428.5 146Q465 199 465 293Q465 387 428 440Q391 493 317 493ZM173 667V763H462V667Z" glyph-name="Omacron" horiz-adv-x="634" unicode="&#332;" /><glyph d="M40 27 97 91Q42 167 42 294Q42 443 115.5 522Q189 601 317 601Q426 601 497 541L547 597L594 557L539 495Q565 457 578.5 407Q592 357 592 294Q592 145 518.5 66.5Q445 -12 317 -12Q208 -12 138 46L85 -13ZM317 493Q242 493 206 440Q170 387 170 293Q170 232 185 189L417 451Q380 493 317 493ZM464 293Q464 351 449 395L216 133Q253 93 317 93Q392 93 428 146Q464 199 464 293Z" glyph-name="Oslash" horiz-adv-x="634" unicode="&#216;" /><glyph d="M40 27 97 91Q42 167 42 294Q42 443 115.5 522Q189 601 317 601Q426 601 497 541L547 597L594 557L539 495Q565 457 578.5 407Q592 357 592 294Q592 145 518.5 66.5Q445 -12 317 -12Q208 -12 138 46L85 -13ZM317 493Q242 493 206 440Q170 387 170 293Q170 232 185 189L417 451Q380 493 317 493ZM464 293Q464 351 449 395L216 133Q253 93 317 93Q392 93 428 146Q464 199 464 293ZM256 649 320 785H472L365 649Z" glyph-name="Oslashacute" horiz-adv-x="634" unicode="&#510;" /><glyph d="M317 -12Q189 -12 115.5 66.5Q42 145 42 294Q42 443 115.5 522Q189 601 317 601Q445 601 518.5 522Q592 443 592 294Q592 145 518.5 66.5Q445 -12 317 -12ZM317 493Q242 493 205 440Q168 387 168 293Q168 199 205 146Q242 93 317 93Q392 93 428.5 146Q465 199 465 293Q465 387 428 440Q391 493 317 493ZM391 650Q366 650 351 656Q336 662 317 673Q296 685 284 691.5Q272 698 259 698Q243 698 233.5 687Q224 676 228 650H160Q148 677 149 703Q150 729 161.5 750Q173 771 194 783.5Q215 796 243 796Q266 796 282 790Q298 784 315 774Q337 761 349 754.5Q361 748 374 748Q388 748 396.5 758Q405 768 401 795H472Q484 766 483.5 739.5Q483 713 472 693Q461 673 440.5 661.5Q420 650 391 650Z" glyph-name="Otilde" horiz-adv-x="634" unicode="&#213;" /><glyph d="M200 298H275Q327 298 348 322Q369 346 369 391Q369 487 275 487H200ZM79 0V589H278Q391 589 440.5 539.5Q490 490 490 396Q490 303 438.5 251Q387 199 290 199H200V0Z" glyph-name="P" horiz-adv-x="520" unicode="P" /><glyph d="M491 -160Q438 -160 397.5 -148.5Q357 -137 327.5 -116.5Q298 -96 278.5 -67.5Q259 -39 247 -5Q150 15 96 90.5Q42 166 42 294Q42 443 115.5 522Q189 601 317 601Q445 601 518.5 522Q592 443 592 294Q592 161 532.5 83.5Q473 6 367 -8Q396 -37 438.5 -48Q481 -59 526 -55ZM317 493Q242 493 205 440Q168 387 168 293Q168 199 205 146Q242 93 317 93Q392 93 428.5 146Q465 199 465 293Q465 387 428 440Q391 493 317 493Z" glyph-name="Q" horiz-adv-x="634" unicode="Q" /><glyph d="M407 0Q395 11 389 26Q383 41 378 59L355 152Q345 194 324 206Q303 218 265 218H200V0H79V589H302Q402 589 456.5 548Q511 507 511 413Q511 344 474 307.5Q437 271 380 266V263Q422 257 445 237.5Q468 218 479 175L509 63Q514 45 521 29.5Q528 14 542 0ZM200 319H294Q340 319 363.5 338.5Q387 358 387 403Q387 443 364 465Q341 487 295 487H200Z" glyph-name="R" horiz-adv-x="571" unicode="R" /><glyph d="M407 0Q395 11 389 26Q383 41 378 59L355 152Q345 194 324 206Q303 218 265 218H200V0H79V589H302Q402 589 456.5 548Q511 507 511 413Q511 344 474 307.5Q437 271 380 266V263Q422 257 445 237.5Q468 218 479 175L509 63Q514 45 521 29.5Q528 14 542 0ZM200 319H294Q340 319 363.5 338.5Q387 358 387 403Q387 443 364 465Q341 487 295 487H200ZM211 649 275 785H427L320 649Z" glyph-name="Racute" horiz-adv-x="571" unicode="&#340;" /><glyph d="M407 0Q395 11 389 26Q383 41 378 59L355 152Q345 194 324 206Q303 218 265 218H200V0H79V589H302Q402 589 456.5 548Q511 507 511 413Q511 344 474 307.5Q437 271 380 266V263Q422 257 445 237.5Q468 218 479 175L509 63Q514 45 521 29.5Q528 14 542 0ZM200 319H294Q340 319 363.5 338.5Q387 358 387 403Q387 443 364 465Q341 487 295 487H200ZM235 647 104 787H219L250 755Q257 747 261 741.5Q265 736 267 732Q270 728 271 724H275Q276 728 279 732Q281 736 285 741.5Q289 747 296 755L327 787H442L311 647Z" glyph-name="Rcaron" horiz-adv-x="571" unicode="&#344;" /><glyph d="M407 0Q395 11 389 26Q383 41 378 59L355 152Q345 194 324 206Q303 218 265 218H200V0H79V589H302Q402 589 456.5 548Q511 507 511 413Q511 344 474 307.5Q437 271 380 266V263Q422 257 445 237.5Q468 218 479 175L509 63Q514 45 521 29.5Q528 14 542 0ZM200 319H294Q340 319 363.5 338.5Q387 358 387 403Q387 443 364 465Q341 487 295 487H200ZM352 -141Q352 -201 316.5 -226.5Q281 -252 217 -252V-210Q248 -209 264.5 -201Q281 -193 281 -170Q253 -175 232.5 -161Q212 -147 212 -117Q212 -87 231 -71.5Q250 -56 278 -56Q310 -56 331 -79.5Q352 -103 352 -141Z" glyph-name="Rcommaaccent" horiz-adv-x="571" unicode="&#342;" /><glyph d="M135 179Q144 132 174.5 106.5Q205 81 250 81Q288 81 312.5 97.5Q337 114 337 148Q337 179 315 198.5Q293 218 231 239Q140 268 93 309.5Q46 351 46 428Q46 477 63.5 510Q81 543 109.5 563.5Q138 584 174 593Q210 602 247 602Q291 602 328.5 594Q366 586 394.5 567.5Q423 549 440.5 519.5Q458 490 462 448L342 420Q338 462 311 482.5Q284 503 249 503Q217 503 194.5 486.5Q172 470 172 438Q172 403 199.5 385Q227 367 283 349Q325 335 358 319.5Q391 304 414.5 282.5Q438 261 450 231.5Q462 202 462 160Q462 113 444.5 80.5Q427 48 397 27.5Q367 7 326.5 -2.5Q286 -12 241 -12Q153 -12 98.5 21.5Q44 55 24 135Z" glyph-name="S" horiz-adv-x="503" unicode="S" /><glyph d="M135 179Q144 132 174.5 106.5Q205 81 250 81Q288 81 312.5 97.5Q337 114 337 148Q337 179 315 198.5Q293 218 231 239Q140 268 93 309.5Q46 351 46 428Q46 477 63.5 510Q81 543 109.5 563.5Q138 584 174 593Q210 602 247 602Q291 602 328.5 594Q366 586 394.5 567.5Q423 549 440.5 519.5Q458 490 462 448L342 420Q338 462 311 482.5Q284 503 249 503Q217 503 194.5 486.5Q172 470 172 438Q172 403 199.5 385Q227 367 283 349Q325 335 358 319.5Q391 304 414.5 282.5Q438 261 450 231.5Q462 202 462 160Q462 113 444.5 80.5Q427 48 397 27.5Q367 7 326.5 -2.5Q286 -12 241 -12Q153 -12 98.5 21.5Q44 55 24 135ZM194 649 258 785H410L303 649Z" glyph-name="Sacute" horiz-adv-x="503" unicode="&#346;" /><glyph d="M135 179Q144 132 174.5 106.5Q205 81 250 81Q288 81 312.5 97.5Q337 114 337 148Q337 179 315 198.5Q293 218 231 239Q140 268 93 309.5Q46 351 46 428Q46 477 63.5 510Q81 543 109.5 563.5Q138 584 174 593Q210 602 247 602Q291 602 328.5 594Q366 586 394.5 567.5Q423 549 440.5 519.5Q458 490 462 448L342 420Q338 462 311 482.5Q284 503 249 503Q217 503 194.5 486.5Q172 470 172 438Q172 403 199.5 385Q227 367 283 349Q325 335 358 319.5Q391 304 414.5 282.5Q438 261 450 231.5Q462 202 462 160Q462 113 444.5 80.5Q427 48 397 27.5Q367 7 326.5 -2.5Q286 -12 241 -12Q153 -12 98.5 21.5Q44 55 24 135ZM218 647 87 787H202L233 755Q240 747 244 741.5Q248 736 250 732Q253 728 254 724H258Q259 728 262 732Q264 736 268 741.5Q272 747 279 755L310 787H425L294 647Z" glyph-name="Scaron" horiz-adv-x="503" unicode="&#352;" /><glyph d="M358 -120Q358 -167 326 -189Q294 -211 247 -211Q213 -211 187 -201Q161 -191 147 -174L171 -115Q200 -150 236 -150Q268 -150 268 -121Q268 -85 212 -81L218 -11Q140 -7 91 26.5Q42 60 24 135L135 179Q144 132 174.5 106.5Q205 81 250 81Q288 81 312.5 97.5Q337 114 337 148Q337 179 315 198.5Q293 218 231 239Q140 268 93 309.5Q46 351 46 428Q46 477 63.5 510Q81 543 109.5 563.5Q138 584 174 593Q210 602 247 602Q291 602 328.5 594Q366 586 394.5 567.5Q423 549 440.5 519.5Q458 490 462 448L342 420Q338 462 311 482.5Q284 503 249 503Q217 503 194.5 486.5Q172 470 172 438Q172 403 199.5 385Q227 367 283 349Q325 335 358 319.5Q391 304 414.5 282.5Q438 261 450 231.5Q462 202 462 160Q462 118 447.5 87Q433 56 407.5 35.5Q382 15 347 4Q312 -7 272 -10L270 -38Q358 -44 358 -120Z" glyph-name="Scedilla" horiz-adv-x="503" unicode="&#350;" /><glyph d="M135 179Q144 132 174.5 106.5Q205 81 250 81Q288 81 312.5 97.5Q337 114 337 148Q337 179 315 198.5Q293 218 231 239Q140 268 93 309.5Q46 351 46 428Q46 477 63.5 510Q81 543 109.5 563.5Q138 584 174 593Q210 602 247 602Q291 602 328.5 594Q366 586 394.5 567.5Q423 549 440.5 519.5Q458 490 462 448L342 420Q338 462 311 482.5Q284 503 249 503Q217 503 194.5 486.5Q172 470 172 438Q172 403 199.5 385Q227 367 283 349Q325 335 358 319.5Q391 304 414.5 282.5Q438 261 450 231.5Q462 202 462 160Q462 113 444.5 80.5Q427 48 397 27.5Q367 7 326.5 -2.5Q286 -12 241 -12Q153 -12 98.5 21.5Q44 55 24 135ZM293 789 424 649H309L278 681Q266 693 261 703Q258 707 257 712H253Q252 707 249 703Q244 693 232 681L201 649H86L217 789Z" glyph-name="Scircumflex" horiz-adv-x="503" unicode="&#348;" /><glyph d="M135 179Q144 132 174.5 106.5Q205 81 250 81Q288 81 312.5 97.5Q337 114 337 148Q337 179 315 198.5Q293 218 231 239Q140 268 93 309.5Q46 351 46 428Q46 477 63.5 510Q81 543 109.5 563.5Q138 584 174 593Q210 602 247 602Q291 602 328.5 594Q366 586 394.5 567.5Q423 549 440.5 519.5Q458 490 462 448L342 420Q338 462 311 482.5Q284 503 249 503Q217 503 194.5 486.5Q172 470 172 438Q172 403 199.5 385Q227 367 283 349Q325 335 358 319.5Q391 304 414.5 282.5Q438 261 450 231.5Q462 202 462 160Q462 113 444.5 80.5Q427 48 397 27.5Q367 7 326.5 -2.5Q286 -12 241 -12Q153 -12 98.5 21.5Q44 55 24 135ZM335 -141Q335 -201 299.5 -226.5Q264 -252 200 -252V-210Q231 -209 247.5 -201Q264 -193 264 -170Q236 -175 215.5 -161Q195 -147 195 -117Q195 -87 214 -71.5Q233 -56 261 -56Q293 -56 314 -79.5Q335 -103 335 -141Z" glyph-name="Scommaaccent" horiz-adv-x="503" unicode="&#536;" /><glyph d="M174 0V484H10V589H461V484H295V0Z" glyph-name="T" horiz-adv-x="471" unicode="T" /><glyph d="M174 0V232H70V330H174V484H10V589H461V484H295V330H403V232H295V0Z" glyph-name="Tbar" horiz-adv-x="471" unicode="&#358;" /><glyph d="M174 0V484H10V589H461V484H295V0ZM198 647 67 787H182L213 755Q220 747 224 741.5Q228 736 230 732Q233 728 234 724H238Q239 728 242 732Q244 736 248 741.5Q252 747 259 755L290 787H405L274 647Z" glyph-name="Tcaron" horiz-adv-x="471" unicode="&#356;" /><glyph d="M174 0V484H10V589H461V484H295V0ZM302 -141Q302 -201 266.5 -226.5Q231 -252 167 -252V-210Q198 -209 214.5 -201Q231 -193 231 -170Q203 -175 182.5 -161Q162 -147 162 -117Q162 -87 181 -71.5Q200 -56 228 -56Q260 -56 281 -79.5Q302 -103 302 -141Z" glyph-name="Tcommaaccent" horiz-adv-x="471" unicode="&#354;" /><glyph d="M200 214H275Q327 214 348 235.5Q369 257 369 302Q369 350 346 371.5Q323 393 275 393H200ZM79 0V589H200V495H278Q391 495 440.5 448Q490 401 490 307Q490 214 438.5 164Q387 114 290 114H200V0Z" glyph-name="Thorn" horiz-adv-x="514" unicode="&#222;" /><glyph d="M537 589V196Q537 137 517.5 97Q498 57 465.5 33Q433 9 390 -1.5Q347 -12 300 -12Q253 -12 210 -1.5Q167 9 134 33Q101 57 81.5 97Q62 137 62 196V589H183V229Q183 160 209 124.5Q235 89 300 89Q364 89 390 124.5Q416 160 416 229V589Z" glyph-name="U" horiz-adv-x="599" unicode="U" /><glyph d="M537 589V196Q537 137 517.5 97Q498 57 465.5 33Q433 9 390 -1.5Q347 -12 300 -12Q253 -12 210 -1.5Q167 9 134 33Q101 57 81.5 97Q62 137 62 196V589H183V229Q183 160 209 124.5Q235 89 300 89Q364 89 390 124.5Q416 160 416 229V589ZM238 649 302 785H454L347 649Z" glyph-name="Uacute" horiz-adv-x="599" unicode="&#218;" /><glyph d="M537 589V196Q537 137 517.5 97Q498 57 465.5 33Q433 9 390 -1.5Q347 -12 300 -12Q253 -12 210 -1.5Q167 9 134 33Q101 57 81.5 97Q62 137 62 196V589H183V229Q183 160 209 124.5Q235 89 300 89Q364 89 390 124.5Q416 160 416 229V589ZM299 645Q224 645 189 683.5Q154 722 154 788H244Q245 759 256.5 744Q268 729 299 729Q330 729 341.5 744Q353 759 355 788H444Q444 722 409 683.5Q374 645 299 645Z" glyph-name="Ubreve" horiz-adv-x="599" unicode="&#364;" /><glyph d="M537 589V196Q537 137 517.5 97Q498 57 465.5 33Q433 9 390 -1.5Q347 -12 300 -12Q253 -12 210 -1.5Q167 9 134 33Q101 57 81.5 97Q62 137 62 196V589H183V229Q183 160 209 124.5Q235 89 300 89Q364 89 390 124.5Q416 160 416 229V589ZM338 789 469 649H354L323 681Q311 693 306 703Q303 707 302 712H298Q297 707 294 703Q289 693 277 681L246 649H131L262 789Z" glyph-name="Ucircumflex" horiz-adv-x="599" unicode="&#219;" /><glyph d="M537 589V196Q537 137 517.5 97Q498 57 465.5 33Q433 9 390 -1.5Q347 -12 300 -12Q253 -12 210 -1.5Q167 9 134 33Q101 57 81.5 97Q62 137 62 196V589H183V229Q183 160 209 124.5Q235 89 300 89Q364 89 390 124.5Q416 160 416 229V589ZM122 720Q122 754 142.5 772Q163 790 191 790Q221 790 241.5 772Q262 754 262 720Q262 687 241.5 668.5Q221 650 191 650Q163 650 142.5 668.5Q122 687 122 720ZM333 719Q333 753 353 771Q373 789 402 789Q432 789 452 771Q472 753 472 719Q472 687 452 668.5Q432 650 402 650Q373 650 353 668.5Q333 687 333 719Z" glyph-name="Udieresis" horiz-adv-x="599" unicode="&#220;" /><glyph d="M537 589V196Q537 137 517.5 97Q498 57 465.5 33Q433 9 390 -1.5Q347 -12 300 -12Q253 -12 210 -1.5Q167 9 134 33Q101 57 81.5 97Q62 137 62 196V589H183V229Q183 160 209 124.5Q235 89 300 89Q364 89 390 124.5Q416 160 416 229V589ZM252 649 145 785H297L361 649Z" glyph-name="Ugrave" horiz-adv-x="599" unicode="&#217;" /><glyph d="M537 589V196Q537 137 517.5 97Q498 57 465.5 33Q433 9 390 -1.5Q347 -12 300 -12Q253 -12 210 -1.5Q167 9 134 33Q101 57 81.5 97Q62 137 62 196V589H183V229Q183 160 209 124.5Q235 89 300 89Q364 89 390 124.5Q416 160 416 229V589ZM173 649 228 785H359L259 649ZM332 649 404 785H541L425 649Z" glyph-name="Uhungarumlaut" horiz-adv-x="599" unicode="&#368;" /><glyph d="M537 589V196Q537 137 517.5 97Q498 57 465.5 33Q433 9 390 -1.5Q347 -12 300 -12Q253 -12 210 -1.5Q167 9 134 33Q101 57 81.5 97Q62 137 62 196V589H183V229Q183 160 209 124.5Q235 89 300 89Q364 89 390 124.5Q416 160 416 229V589ZM154 667V763H443V667Z" glyph-name="Umacron" horiz-adv-x="599" unicode="&#362;" /><glyph d="M194 -101Q194 -69 205.5 -46Q217 -23 235 -6Q199 0 167 14Q135 28 112 52Q89 76 75.5 111.5Q62 147 62 196V589H183V229Q183 160 209 124.5Q235 89 300 89Q364 89 390 124.5Q416 160 416 229V589H537V196Q537 143 521.5 106Q506 69 479 44.5Q452 20 416 7Q380 -6 340 -10Q320 -19 306.5 -36.5Q293 -54 293 -80Q293 -105 306.5 -119Q320 -133 343 -133Q363 -133 379 -124.5Q395 -116 410 -99L439 -159Q398 -211 318 -211Q293 -211 270.5 -205Q248 -199 231 -185.5Q214 -172 204 -151Q194 -130 194 -101Z" glyph-name="Uogonek" horiz-adv-x="599" unicode="&#370;" /><glyph d="M537 589V196Q537 137 517.5 97Q498 57 465.5 33Q433 9 390 -1.5Q347 -12 300 -12Q253 -12 210 -1.5Q167 9 134 33Q101 57 81.5 97Q62 137 62 196V589H183V229Q183 160 209 124.5Q235 89 300 89Q364 89 390 124.5Q416 160 416 229V589ZM306 632Q252 632 223.5 663.5Q195 695 195 740Q195 761 203 780Q211 799 225.5 813Q240 827 260.5 835.5Q281 844 306 844Q331 844 351.5 835.5Q372 827 386.5 813Q401 799 409 780Q417 761 417 740Q417 695 388.5 663.5Q360 632 306 632ZM306 790Q282 790 268.5 775.5Q255 761 255 738Q255 718 268 703.5Q281 689 306 689Q331 689 344 703.5Q357 718 357 738Q357 761 343.5 775.5Q330 790 306 790Z" glyph-name="Uring" horiz-adv-x="599" unicode="&#366;" /><glyph d="M537 589V196Q537 137 517.5 97Q498 57 465.5 33Q433 9 390 -1.5Q347 -12 300 -12Q253 -12 210 -1.5Q167 9 134 33Q101 57 81.5 97Q62 137 62 196V589H183V229Q183 160 209 124.5Q235 89 300 89Q364 89 390 124.5Q416 160 416 229V589ZM374 650Q349 650 334 656Q319 662 300 673Q279 685 267 691.5Q255 698 242 698Q226 698 216.5 687Q207 676 211 650H143Q131 677 132 703Q133 729 144.5 750Q156 771 177 783.5Q198 796 226 796Q249 796 265 790Q281 784 298 774Q320 761 332 754.5Q344 748 357 748Q371 748 379.5 758Q388 768 384 795H455Q467 766 466.5 739.5Q466 713 455 693Q444 673 423.5 661.5Q403 650 374 650Z" glyph-name="Utilde" horiz-adv-x="599" unicode="&#360;" /><glyph d="M245 253Q255 221 262 193Q269 165 273 144Q277 119 280 99H284Q287 119 291 144Q295 165 301 192.5Q307 220 317 252L421 589H548L353 0H204L10 589H140Z" glyph-name="V" horiz-adv-x="558" unicode="V" /><glyph d="M583 250Q591 217 596 187.5Q601 158 605 135Q609 109 613 86H617Q619 110 623 136Q626 159 631 188Q636 217 643 249L718 589H841L704 0H529L454 310Q446 342 441 371Q436 400 434 423Q431 449 430 472H426Q425 449 421 423Q418 400 413.5 370.5Q409 341 401 309L324 0H153L16 589H145L221 251Q228 218 233 188.5Q238 159 242 136Q246 110 249 86H253Q255 110 259 136Q262 159 267.5 188.5Q273 218 281 250L360 589H504Z" glyph-name="W" horiz-adv-x="857" unicode="W" /><glyph d="M583 250Q591 217 596 187.5Q601 158 605 135Q609 109 613 86H617Q619 110 623 136Q626 159 631 188Q636 217 643 249L718 589H841L704 0H529L454 310Q446 342 441 371Q436 400 434 423Q431 449 430 472H426Q425 449 421 423Q418 400 413.5 370.5Q409 341 401 309L324 0H153L16 589H145L221 251Q228 218 233 188.5Q238 159 242 136Q246 110 249 86H253Q255 110 259 136Q262 159 267.5 188.5Q273 218 281 250L360 589H504ZM367 649 431 785H583L476 649Z" glyph-name="Wacute" horiz-adv-x="857" unicode="&#7810;" /><glyph d="M583 250Q591 217 596 187.5Q601 158 605 135Q609 109 613 86H617Q619 110 623 136Q626 159 631 188Q636 217 643 249L718 589H841L704 0H529L454 310Q446 342 441 371Q436 400 434 423Q431 449 430 472H426Q425 449 421 423Q418 400 413.5 370.5Q409 341 401 309L324 0H153L16 589H145L221 251Q228 218 233 188.5Q238 159 242 136Q246 110 249 86H253Q255 110 259 136Q262 159 267.5 188.5Q273 218 281 250L360 589H504ZM467 789 598 649H483L452 681Q440 693 435 703Q432 707 431 712H427Q426 707 423 703Q418 693 406 681L375 649H260L391 789Z" glyph-name="Wcircumflex" horiz-adv-x="857" unicode="&#372;" /><glyph d="M583 250Q591 217 596 187.5Q601 158 605 135Q609 109 613 86H617Q619 110 623 136Q626 159 631 188Q636 217 643 249L718 589H841L704 0H529L454 310Q446 342 441 371Q436 400 434 423Q431 449 430 472H426Q425 449 421 423Q418 400 413.5 370.5Q409 341 401 309L324 0H153L16 589H145L221 251Q228 218 233 188.5Q238 159 242 136Q246 110 249 86H253Q255 110 259 136Q262 159 267.5 188.5Q273 218 281 250L360 589H504ZM251 720Q251 754 271.5 772Q292 790 320 790Q350 790 370.5 772Q391 754 391 720Q391 687 370.5 668.5Q350 650 320 650Q292 650 271.5 668.5Q251 687 251 720ZM462 719Q462 753 482 771Q502 789 531 789Q561 789 581 771Q601 753 601 719Q601 687 581 668.5Q561 650 531 650Q502 650 482 668.5Q462 687 462 719Z" glyph-name="Wdieresis" horiz-adv-x="857" unicode="&#7812;" /><glyph d="M583 250Q591 217 596 187.5Q601 158 605 135Q609 109 613 86H617Q619 110 623 136Q626 159 631 188Q636 217 643 249L718 589H841L704 0H529L454 310Q446 342 441 371Q436 400 434 423Q431 449 430 472H426Q425 449 421 423Q418 400 413.5 370.5Q409 341 401 309L324 0H153L16 589H145L221 251Q228 218 233 188.5Q238 159 242 136Q246 110 249 86H253Q255 110 259 136Q262 159 267.5 188.5Q273 218 281 250L360 589H504ZM381 649 274 785H426L490 649Z" glyph-name="Wgrave" horiz-adv-x="857" unicode="&#7808;" /><glyph d="M328 140Q313 163 305 177.5Q297 192 292 202Q287 213 286 220H282Q280 213 275 202Q266 183 239 140L150 0H10L212 297L19 589H163L241 465Q272 413 280 396Q285 385 286 378H290Q291 384 296 395Q301 405 309 422Q317 439 333 465L408 589H543L359 304L560 0H421Z" glyph-name="X" horiz-adv-x="570" unicode="X" /><glyph d="M224 433Q238 404 246 382.5Q254 361 259 346Q264 328 267 315H271Q273 329 278 347Q283 362 291 383.5Q299 405 313 433L387 589H515L329 205V0H208V205L10 589H148Z" glyph-name="Y" horiz-adv-x="525" unicode="Y" /><glyph d="M224 433Q238 404 246 382.5Q254 361 259 346Q264 328 267 315H271Q273 329 278 347Q283 362 291 383.5Q299 405 313 433L387 589H515L329 205V0H208V205L10 589H148ZM201 649 265 785H417L310 649Z" glyph-name="Yacute" horiz-adv-x="525" unicode="&#221;" /><glyph d="M224 433Q238 404 246 382.5Q254 361 259 346Q264 328 267 315H271Q273 329 278 347Q283 362 291 383.5Q299 405 313 433L387 589H515L329 205V0H208V205L10 589H148ZM300 789 431 649H316L285 681Q273 693 268 703Q265 707 264 712H260Q259 707 256 703Q251 693 239 681L208 649H93L224 789Z" glyph-name="Ycircumflex" horiz-adv-x="525" unicode="&#374;" /><glyph d="M224 433Q238 404 246 382.5Q254 361 259 346Q264 328 267 315H271Q273 329 278 347Q283 362 291 383.5Q299 405 313 433L387 589H515L329 205V0H208V205L10 589H148ZM85 720Q85 754 105.5 772Q126 790 154 790Q184 790 204.5 772Q225 754 225 720Q225 687 204.5 668.5Q184 650 154 650Q126 650 105.5 668.5Q85 687 85 720ZM296 719Q296 753 316 771Q336 789 365 789Q395 789 415 771Q435 753 435 719Q435 687 415 668.5Q395 650 365 650Q336 650 316 668.5Q296 687 296 719Z" glyph-name="Ydieresis" horiz-adv-x="525" unicode="&#376;" /><glyph d="M224 433Q238 404 246 382.5Q254 361 259 346Q264 328 267 315H271Q273 329 278 347Q283 362 291 383.5Q299 405 313 433L387 589H515L329 205V0H208V205L10 589H148ZM215 649 108 785H260L324 649Z" glyph-name="Ygrave" horiz-adv-x="525" unicode="&#7922;" /><glyph d="M235 178Q221 159 210 145.5Q199 132 191 123Q181 112 174 105V101Q182 102 194 103Q205 104 220 104.5Q235 105 256 105H474V0H26V84L254 411Q279 447 297 466Q307 477 315 484V488Q306 487 294 486Q283 485 268 484.5Q253 484 233 484H35V589H467V505Z" glyph-name="Z" horiz-adv-x="500" unicode="Z" /><glyph d="M235 178Q221 159 210 145.5Q199 132 191 123Q181 112 174 105V101Q182 102 194 103Q205 104 220 104.5Q235 105 256 105H474V0H26V84L254 411Q279 447 297 466Q307 477 315 484V488Q306 487 294 486Q283 485 268 484.5Q253 484 233 484H35V589H467V505ZM189 649 253 785H405L298 649Z" glyph-name="Zacute" horiz-adv-x="500" unicode="&#377;" /><glyph d="M235 178Q221 159 210 145.5Q199 132 191 123Q181 112 174 105V101Q182 102 194 103Q205 104 220 104.5Q235 105 256 105H474V0H26V84L254 411Q279 447 297 466Q307 477 315 484V488Q306 487 294 486Q283 485 268 484.5Q253 484 233 484H35V589H467V505ZM213 647 82 787H197L228 755Q235 747 239 741.5Q243 736 245 732Q248 728 249 724H253Q254 728 257 732Q259 736 263 741.5Q267 747 274 755L305 787H420L289 647Z" glyph-name="Zcaron" horiz-adv-x="500" unicode="&#381;" /><glyph d="M235 178Q221 159 210 145.5Q199 132 191 123Q181 112 174 105V101Q182 102 194 103Q205 104 220 104.5Q235 105 256 105H474V0H26V84L254 411Q279 447 297 466Q307 477 315 484V488Q306 487 294 486Q283 485 268 484.5Q253 484 233 484H35V589H467V505ZM175 730Q175 765 196.5 783.5Q218 802 249 802Q282 802 304 783.5Q326 765 326 730Q326 697 304 678Q282 659 249 659Q218 659 196.5 678Q175 697 175 730Z" glyph-name="Zdotaccent" horiz-adv-x="500" unicode="&#379;" /><glyph d="M294 197Q216 199 183 180.5Q150 162 150 127Q150 104 165 89Q180 74 209 74Q224 74 239 78Q254 82 266 90.5Q278 99 286 112Q294 125 294 143ZM413 130Q413 105 422.5 96Q432 87 447 87Q455 87 461.5 89Q468 91 475 94V6Q451 -8 408 -8Q365 -8 338.5 9.5Q312 27 303 65Q286 22 250 5Q214 -12 168 -12Q106 -12 68.5 21Q31 54 31 114Q31 191 94.5 231Q158 271 294 264V313Q294 382 231 382Q199 382 182.5 363.5Q166 345 164 312L47 333Q50 370 66 396.5Q82 423 107.5 440Q133 457 166.5 465Q200 473 237 473Q317 473 365 437.5Q413 402 413 324Z" glyph-name="a" horiz-adv-x="494" unicode="a" /><glyph d="M294 197Q216 199 183 180.5Q150 162 150 127Q150 104 165 89Q180 74 209 74Q224 74 239 78Q254 82 266 90.5Q278 99 286 112Q294 125 294 143ZM413 130Q413 105 422.5 96Q432 87 447 87Q455 87 461.5 89Q468 91 475 94V6Q451 -8 408 -8Q365 -8 338.5 9.5Q312 27 303 65Q286 22 250 5Q214 -12 168 -12Q106 -12 68.5 21Q31 54 31 114Q31 191 94.5 231Q158 271 294 264V313Q294 382 231 382Q199 382 182.5 363.5Q166 345 164 312L47 333Q50 370 66 396.5Q82 423 107.5 440Q133 457 166.5 465Q200 473 237 473Q317 473 365 437.5Q413 402 413 324ZM177 527 248 678H400L284 527Z" glyph-name="aacute" horiz-adv-x="494" unicode="&#225;" /><glyph d="M238 522Q201 522 173.5 533.5Q146 545 128 565.5Q110 586 101.5 614Q93 642 93 674H183Q184 644 194 626Q204 608 238 608Q273 608 282.5 626Q292 644 294 674H384Q384 642 375 614Q366 586 348 565.5Q330 545 302.5 533.5Q275 522 238 522ZM294 197Q216 199 183 180.5Q150 162 150 127Q150 104 165 89Q180 74 209 74Q224 74 239 78Q254 82 266 90.5Q278 99 286 112Q294 125 294 143ZM413 130Q413 105 422.5 96Q432 87 447 87Q455 87 461.5 89Q468 91 475 94V6Q451 -8 408 -8Q365 -8 338.5 9.5Q312 27 303 65Q286 22 250 5Q214 -12 168 -12Q106 -12 68.5 21Q31 54 31 114Q31 191 94.5 231Q158 271 294 264V313Q294 382 231 382Q199 382 182.5 363.5Q166 345 164 312L47 333Q50 370 66 396.5Q82 423 107.5 440Q133 457 166.5 465Q200 473 237 473Q317 473 365 437.5Q413 402 413 324Z" glyph-name="abreve" horiz-adv-x="494" unicode="&#259;" /><glyph d="M294 197Q216 199 183 180.5Q150 162 150 127Q150 104 165 89Q180 74 209 74Q224 74 239 78Q254 82 266 90.5Q278 99 286 112Q294 125 294 143ZM413 130Q413 105 422.5 96Q432 87 447 87Q455 87 461.5 89Q468 91 475 94V6Q451 -8 408 -8Q365 -8 338.5 9.5Q312 27 303 65Q286 22 250 5Q214 -12 168 -12Q106 -12 68.5 21Q31 54 31 114Q31 191 94.5 231Q158 271 294 264V313Q294 382 231 382Q199 382 182.5 363.5Q166 345 164 312L47 333Q50 370 66 396.5Q82 423 107.5 440Q133 457 166.5 465Q200 473 237 473Q317 473 365 437.5Q413 402 413 324ZM272 680 404 525H291L259 562Q251 570 247 576.5Q243 583 241 588Q238 593 238 597H233Q233 593 230 588Q225 578 212 562L180 525H67L199 680Z" glyph-name="acircumflex" horiz-adv-x="494" unicode="&#226;" /><glyph d="M82 527 153 678H305L189 527Z" glyph-name="acute" horiz-adv-x="385" unicode="&#180;" /><glyph d="M80 649 144 785H296L189 649Z" glyph-name="acute.cap" horiz-adv-x="376" unicode="&#58402;" /><glyph d="M294 197Q216 199 183 180.5Q150 162 150 127Q150 104 165 89Q180 74 209 74Q224 74 239 78Q254 82 266 90.5Q278 99 286 112Q294 125 294 143ZM413 130Q413 105 422.5 96Q432 87 447 87Q455 87 461.5 89Q468 91 475 94V6Q451 -8 408 -8Q365 -8 338.5 9.5Q312 27 303 65Q286 22 250 5Q214 -12 168 -12Q106 -12 68.5 21Q31 54 31 114Q31 191 94.5 231Q158 271 294 264V313Q294 382 231 382Q199 382 182.5 363.5Q166 345 164 312L47 333Q50 370 66 396.5Q82 423 107.5 440Q133 457 166.5 465Q200 473 237 473Q317 473 365 437.5Q413 402 413 324ZM62 596Q62 630 82.5 648Q103 666 131 666Q161 666 181.5 648Q202 630 202 596Q202 563 181.5 544.5Q161 526 131 526Q103 526 82.5 544.5Q62 563 62 596ZM273 595Q273 629 293 647Q313 665 342 665Q372 665 392 647Q412 629 412 595Q412 563 392 544.5Q372 526 342 526Q313 526 293 544.5Q273 563 273 595Z" glyph-name="adieresis" horiz-adv-x="494" unicode="&#228;" /><glyph d="M513 80Q544 80 566.5 94.5Q589 109 601 147L703 114Q695 79 676 55Q657 31 631.5 16Q606 1 574.5 -5.5Q543 -12 510 -12Q401 -12 343 63Q325 25 283.5 6.5Q242 -12 185 -12Q116 -12 73.5 21Q31 54 31 119Q31 196 95 235.5Q159 275 297 276Q300 300 306 321Q303 353 283 367.5Q263 382 234 382Q203 382 184.5 363.5Q166 345 164 312L47 333Q50 370 66 396.5Q82 423 107 440Q132 457 164.5 465Q197 473 232 473Q279 473 312.5 460.5Q346 448 366 422Q423 473 513 473Q560 473 596 457Q632 441 656 413.5Q680 386 692 348Q704 310 704 266Q704 233 696 204H407Q409 146 435.5 113Q462 80 513 80ZM588 276Q589 281 589 284.5Q589 288 589 292Q589 329 568 356Q547 383 508 383Q462 383 438.5 353Q415 323 410 276ZM209 74Q243 74 270 90.5Q297 107 305 139Q297 167 295 205Q150 204 150 127Q150 104 165 89Q180 74 209 74Z" glyph-name="ae" horiz-adv-x="741" unicode="&#230;" /><glyph d="M508 80Q539 80 561.5 94.5Q584 109 596 147L698 114Q690 79 671 55Q652 31 626.5 16Q601 1 569.5 -5.5Q538 -12 505 -12Q396 -12 338 63Q320 25 278.5 6.5Q237 -12 180 -12Q111 -12 68.5 21Q26 54 26 119Q26 196 90 235.5Q154 275 292 276Q295 300 301 321Q298 353 278 367.5Q258 382 229 382Q198 382 179.5 363.5Q161 345 159 312L42 333Q45 370 61 396.5Q77 423 102 440Q127 457 159.5 465Q192 473 227 473Q274 473 307.5 460.5Q341 448 361 422Q418 473 508 473Q555 473 591 457Q627 441 651 413.5Q675 386 687 348Q699 310 699 266Q699 233 691 204H402Q404 146 430.5 113Q457 80 508 80ZM583 276Q584 281 584 284.5Q584 288 584 292Q584 329 563 356Q542 383 503 383Q457 383 433.5 353Q410 323 405 276ZM204 74Q238 74 265 90.5Q292 107 300 139Q292 167 290 205Q145 204 145 127Q145 104 160 89Q175 74 204 74ZM299 527 370 678H522L406 527Z" glyph-name="aeacute" horiz-adv-x="734" unicode="&#509;" /><glyph d="M294 197Q216 199 183 180.5Q150 162 150 127Q150 104 165 89Q180 74 209 74Q224 74 239 78Q254 82 266 90.5Q278 99 286 112Q294 125 294 143ZM413 130Q413 105 422.5 96Q432 87 447 87Q455 87 461.5 89Q468 91 475 94V6Q451 -8 408 -8Q365 -8 338.5 9.5Q312 27 303 65Q286 22 250 5Q214 -12 168 -12Q106 -12 68.5 21Q31 54 31 114Q31 191 94.5 231Q158 271 294 264V313Q294 382 231 382Q199 382 182.5 363.5Q166 345 164 312L47 333Q50 370 66 396.5Q82 423 107.5 440Q133 457 166.5 465Q200 473 237 473Q317 473 365 437.5Q413 402 413 324ZM194 527 78 678H230L302 527Z" glyph-name="agrave" horiz-adv-x="494" unicode="&#224;" /><glyph d="M294 197Q216 199 183 180.5Q150 162 150 127Q150 104 165 89Q180 74 209 74Q224 74 239 78Q254 82 266 90.5Q278 99 286 112Q294 125 294 143ZM413 130Q413 105 422.5 96Q432 87 447 87Q455 87 461.5 89Q468 91 475 94V6Q451 -8 408 -8Q365 -8 338.5 9.5Q312 27 303 65Q286 22 250 5Q214 -12 168 -12Q106 -12 68.5 21Q31 54 31 114Q31 191 94.5 231Q158 271 294 264V313Q294 382 231 382Q199 382 182.5 363.5Q166 345 164 312L47 333Q50 370 66 396.5Q82 423 107.5 440Q133 457 166.5 465Q200 473 237 473Q317 473 365 437.5Q413 402 413 324ZM95 545V642H378V545Z" glyph-name="amacron" horiz-adv-x="494" unicode="&#257;" /><glyph d="M478 -14 408 56Q369 21 321 4.5Q273 -12 209 -12Q171 -12 136.5 -3Q102 6 75 25Q48 44 32 74Q16 104 16 146Q16 200 48 243Q80 286 151 306L121 336Q96 360 80 390.5Q64 421 64 459Q64 494 77.5 520.5Q91 547 115 565Q139 583 172 592Q205 601 243 601Q280 601 312 592Q344 583 367.5 565Q391 547 404 521Q417 495 417 461Q417 406 382.5 373Q348 340 292 324L411 207Q421 224 427 249.5Q433 275 434 303L533 269Q528 234 514 198.5Q500 163 482 140L564 63ZM135 158Q135 120 160.5 98Q186 76 227 76Q300 76 341 121L200 260Q170 243 152.5 220.5Q135 198 135 158ZM243 520Q215 520 199 504.5Q183 489 183 465Q183 446 191.5 432Q200 418 214 403L250 366Q279 383 292.5 406.5Q306 430 306 458Q306 487 290 503.5Q274 520 243 520Z" glyph-name="ampersand" horiz-adv-x="571" unicode="&amp;" /><glyph d="M246 -101Q246 -78 253.5 -59.5Q261 -41 273 -26Q285 -11 300 -0.5Q315 10 331 17Q320 24 313 37.5Q306 51 303 65Q286 23 250 5.5Q214 -12 168 -12Q106 -12 68.5 21Q31 54 31 114Q31 191 94.5 231Q158 271 294 264V313Q294 382 231 382Q199 382 182.5 363.5Q166 345 164 312L47 333Q50 370 66 396.5Q82 423 107.5 440Q133 457 166.5 465Q200 473 237 473Q317 473 365 437.5Q413 402 413 324V130Q413 105 422.5 96Q432 87 447 87Q455 87 461.5 89Q468 91 475 94V6Q456 3 433 -2.5Q410 -8 390.5 -17.5Q371 -27 358 -42Q345 -57 345 -80Q345 -105 358.5 -119Q372 -133 395 -133Q415 -133 431 -124.5Q447 -116 462 -99L491 -159Q450 -211 370 -211Q345 -211 322.5 -205Q300 -199 283 -185.5Q266 -172 256 -151Q246 -130 246 -101ZM294 197Q216 199 183 180.5Q150 162 150 127Q150 104 165 89Q180 74 209 74Q224 74 239 78Q254 82 266 90.5Q278 99 286 112Q294 125 294 143Z" glyph-name="aogonek" horiz-adv-x="494" unicode="&#261;" /><glyph d="M360 247Q335 247 306.5 254Q278 261 249.5 269Q221 277 194.5 284Q168 291 146 291Q116 291 91.5 280Q67 269 45 248V315Q69 340 94.5 349.5Q120 359 149 359Q174 359 200.5 352.5Q227 346 254 338Q281 330 307.5 323.5Q334 317 357 317Q383 317 406.5 325.5Q430 334 453 356V283Q435 263 412.5 255Q390 247 360 247ZM360 121Q335 121 306.5 128Q278 135 249.5 143Q221 151 194.5 158Q168 165 146 165Q116 165 91.5 154Q67 143 45 121V189Q69 213 94.5 223Q120 233 149 233Q174 233 200.5 226.5Q227 220 254 211.5Q281 203 307.5 196.5Q334 190 357 190Q383 190 406.5 199Q430 208 453 230V157Q435 137 412.5 129Q390 121 360 121Z" glyph-name="approxequal" horiz-adv-x="498" unicode="&#8776;" /><glyph d="M294 197Q216 199 183 180.5Q150 162 150 127Q150 104 165 89Q180 74 209 74Q224 74 239 78Q254 82 266 90.5Q278 99 286 112Q294 125 294 143ZM413 130Q413 105 422.5 96Q432 87 447 87Q455 87 461.5 89Q468 91 475 94V6Q451 -8 408 -8Q365 -8 338.5 9.5Q312 27 303 65Q286 22 250 5Q214 -12 168 -12Q106 -12 68.5 21Q31 54 31 114Q31 191 94.5 231Q158 271 294 264V313Q294 382 231 382Q199 382 182.5 363.5Q166 345 164 312L47 333Q50 370 66 396.5Q82 423 107.5 440Q133 457 166.5 465Q200 473 237 473Q317 473 365 437.5Q413 402 413 324ZM236 511Q182 511 153.5 542.5Q125 574 125 619Q125 640 133 659Q141 678 155.5 692Q170 706 190.5 714.5Q211 723 236 723Q261 723 281.5 714.5Q302 706 316.5 692Q331 678 339 659Q347 640 347 619Q347 574 318.5 542.5Q290 511 236 511ZM236 669Q212 669 198.5 654.5Q185 640 185 617Q185 597 198 582.5Q211 568 236 568Q261 568 274 582.5Q287 597 287 617Q287 640 273.5 654.5Q260 669 236 669Z" glyph-name="aring" horiz-adv-x="494" unicode="&#229;" /><glyph d="M310 452Q293 487 284 511.5Q275 536 270 553Q265 572 263 585H259Q257 571 252 552Q247 535 237.5 510.5Q228 486 211 453L144 321H30L210 668H314L493 321H373Z" glyph-name="asciicircum" horiz-adv-x="523" unicode="^" /><glyph d="M323 195Q298 195 283 201Q268 207 249 218Q228 230 216 236.5Q204 243 191 243Q175 243 165.5 232Q156 221 160 195H92Q80 222 81 248.5Q82 275 93.5 295.5Q105 316 126 329Q147 342 175 342Q198 342 214 335.5Q230 329 247 319Q269 306 281 299.5Q293 293 306 293Q320 293 328.5 303Q337 313 333 340H404Q416 311 415.5 284.5Q415 258 404 238Q393 218 372.5 206.5Q352 195 323 195Z" glyph-name="asciitilde" horiz-adv-x="497" unicode="~" /><glyph d="M226 492 321 539 348 455 243 438 319 361 244 307 197 402 148 307 76 361 150 438 45 455 74 538 168 492 151 596H243Z" glyph-name="asterisk" horiz-adv-x="393" unicode="*" /><glyph d="M519 241Q519 263 511.5 279.5Q504 296 492 306Q480 316 465.5 321Q451 326 437 326Q421 326 405.5 319.5Q390 313 378 297.5Q366 282 358.5 257.5Q351 233 351 197Q351 140 374.5 109.5Q398 79 437 79Q450 79 464.5 83.5Q479 88 491 98.5Q503 109 511 125.5Q519 142 519 166ZM628 104Q628 76 637 64.5Q646 53 666 53Q715 53 741 108Q767 163 767 256Q767 327 742.5 379Q718 431 675.5 465.5Q633 500 577 517Q521 534 458 534Q392 534 331.5 512.5Q271 491 224.5 448.5Q178 406 150 342Q122 278 122 194Q122 111 148.5 49Q175 -13 222 -54.5Q269 -96 335 -117Q401 -138 479 -138Q531 -138 575 -131Q619 -124 672 -106L687 -171Q635 -188 580.5 -195Q526 -202 478 -202Q379 -202 298.5 -176Q218 -150 162 -99.5Q106 -49 75.5 24.5Q45 98 45 194Q45 283 75.5 357Q106 431 160.5 484.5Q215 538 291 567.5Q367 597 459 597Q553 597 624.5 570.5Q696 544 744 498Q792 452 816.5 391.5Q841 331 841 262Q841 202 831 152Q821 102 797.5 65.5Q774 29 736 8.5Q698 -12 642 -12Q592 -12 560 8.5Q528 29 523 76Q509 26 474.5 7Q440 -12 393 -12Q361 -12 332 0.5Q303 13 281 38.5Q259 64 246.5 101.5Q234 139 234 190Q234 293 280 351Q326 409 413 409Q458 409 486.5 392Q515 375 527 348L554 400H628Z" glyph-name="at" horiz-adv-x="890" unicode="@" /><glyph d="M294 197Q216 199 183 180.5Q150 162 150 127Q150 104 165 89Q180 74 209 74Q224 74 239 78Q254 82 266 90.5Q278 99 286 112Q294 125 294 143ZM413 130Q413 105 422.5 96Q432 87 447 87Q455 87 461.5 89Q468 91 475 94V6Q451 -8 408 -8Q365 -8 338.5 9.5Q312 27 303 65Q286 22 250 5Q214 -12 168 -12Q106 -12 68.5 21Q31 54 31 114Q31 191 94.5 231Q158 271 294 264V313Q294 382 231 382Q199 382 182.5 363.5Q166 345 164 312L47 333Q50 370 66 396.5Q82 423 107.5 440Q133 457 166.5 465Q200 473 237 473Q317 473 365 437.5Q413 402 413 324ZM310 524Q285 524 270 530Q255 536 236 547Q215 559 203 565.5Q191 572 178 572Q162 572 152.5 560.5Q143 549 147 523H79Q67 550 68 576.5Q69 603 80.5 623.5Q92 644 113 656.5Q134 669 162 669Q185 669 201 662.5Q217 656 234 646Q256 633 268 626.5Q280 620 293 620Q307 620 315.5 630Q324 640 320 667H391Q403 638 402.5 612Q402 586 391 566.5Q380 547 359.5 535.5Q339 524 310 524Z" glyph-name="atilde" horiz-adv-x="494" unicode="&#227;" /><glyph d="M185 186Q185 155 194 133.5Q203 112 216.5 99Q230 86 247 80.5Q264 75 281 75Q304 75 324.5 84.5Q345 94 360 113.5Q375 133 384 162Q393 191 393 231Q393 307 365.5 342Q338 377 290 377Q269 377 250 369.5Q231 362 216.5 347Q202 332 193.5 310Q185 288 185 260ZM148 0H66V668H185V375Q204 428 244.5 450.5Q285 473 334 473Q419 473 466 413.5Q513 354 513 242Q513 186 500 139.5Q487 93 461.5 59.5Q436 26 399.5 7Q363 -12 316 -12Q256 -12 222.5 11Q189 34 178 67Z" glyph-name="b" horiz-adv-x="549" unicode="b" /><glyph d="M409 -203H305L30 668H135Z" glyph-name="backslash" horiz-adv-x="419" unicode="\" /><glyph d="M100 -203V668H197V-203Z" glyph-name="bar" horiz-adv-x="297" unicode="|" /><glyph d="M154 232Q173 230 190.5 224Q208 218 221 206Q234 194 241.5 174.5Q249 155 249 125V-43Q249 -78 259.5 -96Q270 -114 301 -114Q321 -114 334 -110Q347 -106 364 -97L384 -181Q337 -206 272 -206Q233 -206 207 -195Q181 -184 165.5 -164.5Q150 -145 143.5 -119Q137 -93 137 -62V111Q137 135 131.5 150.5Q126 166 116.5 174Q107 182 94.5 185Q82 188 68 188H27V279H68Q82 279 94.5 282Q107 285 116.5 293.5Q126 302 131.5 317Q137 332 137 356V530Q137 561 143.5 587Q150 613 165.5 632Q181 651 207 662Q233 673 272 673Q306 673 333 667.5Q360 662 384 648L364 564Q347 573 334 577Q321 581 301 581Q270 581 259.5 563.5Q249 546 249 511V343Q249 311 241.5 291.5Q234 272 221 260Q208 248 190.5 243Q173 238 154 236Z" glyph-name="braceleft" horiz-adv-x="412" unicode="{" /><glyph d="M257 236Q238 238 220.5 243Q203 248 190 260Q177 272 169.5 291.5Q162 311 162 343V511Q162 546 151.5 563.5Q141 581 111 581Q91 581 77.5 577Q64 573 48 564L28 648Q51 662 78.5 667.5Q106 673 140 673Q179 673 205 662Q231 651 246.5 632Q262 613 268.5 587Q275 561 275 530V356Q275 332 280.5 317Q286 302 295.5 293.5Q305 285 317.5 282Q330 279 344 279H385V188H344Q330 188 317.5 185Q305 182 295.5 174Q286 166 280.5 150.5Q275 135 275 111V-62Q275 -93 268.5 -119Q262 -145 246.5 -164.5Q231 -184 205 -195Q179 -206 140 -206Q74 -206 28 -181L48 -97Q64 -106 77.5 -110Q91 -114 111 -114Q141 -114 151.5 -96Q162 -78 162 -43V125Q162 155 169.5 174.5Q177 194 190 206Q203 218 220.5 224Q238 230 257 232Z" glyph-name="braceright" horiz-adv-x="412" unicode="}" /><glyph d="M197 -114H322V-203H79V668H322V579H197Z" glyph-name="bracketleft" horiz-adv-x="357" unicode="[" /><glyph d="M160 579H35V668H278V-203H35V-114H160Z" glyph-name="bracketright" horiz-adv-x="357" unicode="]" /><glyph d="M225 522Q188 522 160.5 533.5Q133 545 115 565.5Q97 586 88.5 614Q80 642 80 674H170Q171 644 181 626Q191 608 225 608Q260 608 269.5 626Q279 644 281 674H371Q371 642 362 614Q353 586 335 565.5Q317 545 289.5 533.5Q262 522 225 522Z" glyph-name="breve" horiz-adv-x="451" unicode="&#728;" /><glyph d="M225 645Q150 645 115 683.5Q80 722 80 788H170Q171 759 182.5 744Q194 729 225 729Q256 729 267.5 744Q279 759 281 788H370Q370 722 335 683.5Q300 645 225 645Z" glyph-name="breve.cap" horiz-adv-x="450" unicode="&#58406;" /><glyph d="M67 252Q67 274 75.5 293.5Q84 313 98.5 328Q113 343 132.5 351.5Q152 360 174 360Q196 360 215.5 351.5Q235 343 250 328Q265 313 273.5 293.5Q282 274 282 252Q282 230 273.5 210.5Q265 191 250 176.5Q235 162 215.5 153.5Q196 145 174 145Q152 145 132.5 153.5Q113 162 98.5 176.5Q84 191 75.5 210.5Q67 230 67 252Z" glyph-name="bullet" horiz-adv-x="349" unicode="&#8226;" /><glyph d="M443 122Q437 87 419.5 62Q402 37 377 20.5Q352 4 320.5 -4Q289 -12 253 -12Q204 -12 164 4Q124 20 95.5 50.5Q67 81 51.5 126Q36 171 36 229Q36 287 51.5 332Q67 377 96 408.5Q125 440 165.5 456.5Q206 473 256 473Q336 473 383.5 433Q431 393 436 324L334 297Q328 336 308.5 357Q289 378 254 378Q203 378 177.5 338Q152 298 152 230Q152 161 179.5 121Q207 81 256 81Q287 81 308 97Q329 113 338 153Z" glyph-name="c" horiz-adv-x="466" unicode="c" /><glyph d="M443 122Q437 87 419.5 62Q402 37 377 20.5Q352 4 320.5 -4Q289 -12 253 -12Q204 -12 164 4Q124 20 95.5 50.5Q67 81 51.5 126Q36 171 36 229Q36 287 51.5 332Q67 377 96 408.5Q125 440 165.5 456.5Q206 473 256 473Q336 473 383.5 433Q431 393 436 324L334 297Q328 336 308.5 357Q289 378 254 378Q203 378 177.5 338Q152 298 152 230Q152 161 179.5 121Q207 81 256 81Q287 81 308 97Q329 113 338 153ZM199 527 270 678H422L306 527Z" glyph-name="cacute" horiz-adv-x="466" unicode="&#263;" /><glyph d="M212 525 80 680H193L225 643Q238 627 243 617Q246 612 246 608H251Q251 612 254 617Q256 622 260 628.5Q264 635 272 643L304 680H417L285 525Z" glyph-name="caron" horiz-adv-x="497" unicode="&#711;" /><glyph d="M211 647 80 787H195L226 755Q233 747 237 741.5Q241 736 243 732Q246 728 247 724H251Q252 728 255 732Q257 736 261 741.5Q265 747 272 755L303 787H418L287 647Z" glyph-name="caron.cap" horiz-adv-x="498" unicode="&#58413;" /><glyph d="M163 479H77L93 668H219Z" glyph-name="caronSlovak" horiz-adv-x="289" unicode="&#58387;" /><glyph d="M443 122Q437 87 419.5 62Q402 37 377 20.5Q352 4 320.5 -4Q289 -12 253 -12Q204 -12 164 4Q124 20 95.5 50.5Q67 81 51.5 126Q36 171 36 229Q36 287 51.5 332Q67 377 96 408.5Q125 440 165.5 456.5Q206 473 256 473Q336 473 383.5 433Q431 393 436 324L334 297Q328 336 308.5 357Q289 378 254 378Q203 378 177.5 338Q152 298 152 230Q152 161 179.5 121Q207 81 256 81Q287 81 308 97Q329 113 338 153ZM220 525 88 680H201L233 643Q246 627 251 617Q254 612 254 608H259Q259 612 262 617Q264 622 268 628.5Q272 635 280 643L312 680H425L293 525Z" glyph-name="ccaron" horiz-adv-x="466" unicode="&#269;" /><glyph d="M364 -120Q364 -167 332 -189Q300 -211 253 -211Q219 -211 193 -201Q167 -191 153 -174L177 -115Q206 -150 242 -150Q274 -150 274 -121Q274 -85 218 -81L224 -10Q138 -2 87 59.5Q36 121 36 229Q36 287 51.5 332Q67 377 96 408.5Q125 440 165.5 456.5Q206 473 256 473Q336 473 383.5 433Q431 393 436 324L334 297Q328 336 308.5 357Q289 378 254 378Q203 378 177.5 338Q152 298 152 230Q152 161 179.5 121Q207 81 256 81Q287 81 308 97Q329 113 338 153L443 122Q431 58 386 26Q341 -6 278 -11L276 -38Q364 -44 364 -120Z" glyph-name="ccedilla" horiz-adv-x="466" unicode="&#231;" /><glyph d="M443 122Q437 87 419.5 62Q402 37 377 20.5Q352 4 320.5 -4Q289 -12 253 -12Q204 -12 164 4Q124 20 95.5 50.5Q67 81 51.5 126Q36 171 36 229Q36 287 51.5 332Q67 377 96 408.5Q125 440 165.5 456.5Q206 473 256 473Q336 473 383.5 433Q431 393 436 324L334 297Q328 336 308.5 357Q289 378 254 378Q203 378 177.5 338Q152 298 152 230Q152 161 179.5 121Q207 81 256 81Q287 81 308 97Q329 113 338 153ZM290 680 422 525H309L277 562Q269 570 265 576.5Q261 583 259 588Q256 593 256 597H251Q251 593 248 588Q243 578 230 562L198 525H85L217 680Z" glyph-name="ccircumflex" horiz-adv-x="466" unicode="&#265;" /><glyph d="M443 122Q437 87 419.5 62Q402 37 377 20.5Q352 4 320.5 -4Q289 -12 253 -12Q204 -12 164 4Q124 20 95.5 50.5Q67 81 51.5 126Q36 171 36 229Q36 287 51.5 332Q67 377 96 408.5Q125 440 165.5 456.5Q206 473 256 473Q336 473 383.5 433Q431 393 436 324L334 297Q328 336 308.5 357Q289 378 254 378Q203 378 177.5 338Q152 298 152 230Q152 161 179.5 121Q207 81 256 81Q287 81 308 97Q329 113 338 153ZM179 594Q179 628 201 647Q223 666 253 666Q286 666 308 647Q330 628 330 594Q330 561 308 542Q286 523 253 523Q223 523 201 542Q179 561 179 594Z" glyph-name="cdotaccent" horiz-adv-x="466" unicode="&#267;" /><glyph d="M253 38Q206 41 168 58.5Q130 76 102 107Q74 138 59 183.5Q44 229 44 288Q44 402 100 466Q156 530 253 540V623H303V541Q372 538 416 507.5Q460 477 486 417L381 363Q370 395 352.5 416.5Q335 438 303 444V135Q334 139 354.5 156.5Q375 174 390 206L486 145Q456 92 412.5 66.5Q369 41 303 37V-57H253ZM166 291Q166 226 188.5 186.5Q211 147 253 137V443Q212 433 189 395Q166 357 166 291Z" glyph-name="cent" horiz-adv-x="515" unicode="&#162;" /><glyph d="M285 680 417 525H304L272 562Q264 570 260 576.5Q256 583 254 588Q251 593 251 597H246Q246 593 243 588Q238 578 225 562L193 525H80L212 680Z" glyph-name="circumflex" horiz-adv-x="497" unicode="&#710;" /><glyph d="M287 789 418 649H303L272 681Q260 693 255 703Q252 707 251 712H247Q246 707 243 703Q238 693 226 681L195 649H80L211 789Z" glyph-name="circumflex.cap" horiz-adv-x="498" unicode="&#58403;" /><glyph d="M65 73Q65 108 88 131.5Q111 155 144 155Q179 155 202 131.5Q225 108 225 73Q225 40 202 17.5Q179 -5 144 -5Q111 -5 88 17.5Q65 40 65 73ZM65 384Q65 419 88 442.5Q111 466 144 466Q179 466 202 442.5Q225 419 225 384Q225 351 202 328.5Q179 306 144 306Q111 306 88 328.5Q65 351 65 384Z" glyph-name="colon" horiz-adv-x="290" unicode=":" /><glyph d="M226 45Q226 1 213 -29.5Q200 -60 177 -79.5Q154 -99 122 -108.5Q90 -118 51 -119V-68Q92 -63 116.5 -45.5Q141 -28 141 7Q108 2 82.5 19.5Q57 37 57 74Q57 110 80 128.5Q103 147 136 147Q174 147 200 119.5Q226 92 226 45Z" glyph-name="comma" horiz-adv-x="288" unicode="," /><glyph d="M235 -141Q235 -201 199.5 -226.5Q164 -252 100 -252V-210Q131 -209 147.5 -201Q164 -193 164 -170Q136 -175 115.5 -161Q95 -147 95 -117Q95 -87 114 -71.5Q133 -56 161 -56Q193 -56 214 -79.5Q235 -103 235 -141Z" glyph-name="commaaccent" horiz-adv-x="288" unicode="&#63171;" /><glyph d="M80 732Q80 792 115.5 817.5Q151 843 216 843V801Q184 800 168 792Q152 784 152 761Q179 766 199.5 752Q220 738 220 708Q220 678 201 662.5Q182 647 154 647Q122 647 101 670.5Q80 694 80 732Z" glyph-name="commaaccent.cap" horiz-adv-x="300" unicode="&#58414;" /><glyph d="M519 183Q491 141 452 120.5Q413 100 350 100Q310 100 276 112.5Q242 125 217.5 149.5Q193 174 179 210.5Q165 247 165 295Q165 389 217.5 439.5Q270 490 360 490Q420 490 458 467Q496 444 519 394L430 349Q421 376 404.5 392Q388 408 357 408Q317 408 292.5 379Q268 350 268 296Q268 243 291.5 214Q315 185 357 185Q387 185 405.5 199Q424 213 438 239ZM45 294Q45 361 69 417Q93 473 134.5 514Q176 555 232 578Q288 601 351 601Q414 601 470 578Q526 555 568 514Q610 473 634 417Q658 361 658 294Q658 227 634 171Q610 115 568 74.5Q526 34 470 11Q414 -12 351 -12Q288 -12 232 11Q176 34 134.5 74.5Q93 115 69 171Q45 227 45 294ZM76 294Q76 233 98 182Q120 131 157.5 94.5Q195 58 245.5 37.5Q296 17 353 17Q410 17 460 37.5Q510 58 547.5 94.5Q585 131 606.5 182Q628 233 628 294Q628 355 606.5 406Q585 457 547.5 494Q510 531 460 551.5Q410 572 353 572Q296 572 245.5 551.5Q195 531 157.5 494Q120 457 98 406Q76 355 76 294Z" glyph-name="copyright" horiz-adv-x="703" unicode="&#169;" /><glyph d="M365 281Q365 308 356.5 327.5Q348 347 334 359.5Q320 372 302 378Q284 384 266 384Q244 384 224 376Q204 368 189 349Q174 330 165 300Q156 270 156 227Q156 155 185 117.5Q214 80 265 80Q283 80 300.5 87Q318 94 332.5 107.5Q347 121 356 141.5Q365 162 365 189ZM364 668H483V0H379L365 80Q357 54 343 36Q329 18 310.5 7.5Q292 -3 268.5 -7.5Q245 -12 220 -12Q182 -12 148.5 3Q115 18 90 47.5Q65 77 50.5 120.5Q36 164 36 222Q36 340 89 406.5Q142 473 242 473Q287 473 320.5 453Q354 433 364 401Z" glyph-name="d" horiz-adv-x="549" unicode="d" /><glyph d="M44 254V365L225 355L215 589H336L326 355L507 365V254L326 265L336 -150H216L226 265Z" glyph-name="dagger" horiz-adv-x="551" unicode="&#8224;" /><glyph d="M325 151 507 161V51L326 62L336 -150H217L227 62L44 51V161L226 151V299L44 288V399L226 388L216 589H336L325 388L507 399V288L326 299Z" glyph-name="daggerdbl" horiz-adv-x="551" unicode="&#8225;" /><glyph d="M626 509H540L556 686H682ZM365 281Q365 308 356.5 327.5Q348 347 334 359.5Q320 372 302 378Q284 384 266 384Q244 384 224 376Q204 368 189 349Q174 330 165 300Q156 270 156 227Q156 155 185 117.5Q214 80 265 80Q283 80 300.5 87Q318 94 332.5 107.5Q347 121 356 141.5Q365 162 365 189ZM364 668H483V0H379L365 80Q357 54 343 36Q329 18 310.5 7.5Q292 -3 268.5 -7.5Q245 -12 220 -12Q182 -12 148.5 3Q115 18 90 47.5Q65 77 50.5 120.5Q36 164 36 222Q36 340 89 406.5Q142 473 242 473Q287 473 320.5 453Q354 433 364 401Z" glyph-name="dcaron" horiz-adv-x="549" unicode="&#271;" /><glyph d="M221 598H364V668H483V598H552V522H483V0H379L365 80Q357 54 343 36Q329 18 310.5 7.5Q292 -3 268.5 -7.5Q245 -12 220 -12Q182 -12 148.5 3Q115 18 90 47.5Q65 77 50.5 120.5Q36 164 36 222Q36 340 89 406.5Q142 473 242 473Q287 473 320.5 453Q354 433 364 401V522H221ZM365 281Q365 308 356.5 327.5Q348 347 334 359.5Q320 372 302 378Q284 384 266 384Q244 384 224 376Q204 368 189 349Q174 330 165 300Q156 270 156 227Q156 155 185 117.5Q214 80 265 80Q283 80 300.5 87Q318 94 332.5 107.5Q347 121 356 141.5Q365 162 365 189Z" glyph-name="dcroat" horiz-adv-x="549" unicode="&#273;" /><glyph d="M28 496Q28 539 56.5 570Q85 601 132 601Q155 601 174 592.5Q193 584 207 570Q221 556 229 536.5Q237 517 237 496Q237 452 207.5 422Q178 392 132 392Q85 392 56.5 422Q28 452 28 496ZM90 496Q90 477 101 464Q112 451 132 451Q152 451 163 464Q174 477 174 496Q174 516 163 529Q152 542 132 542Q112 542 101 529Q90 516 90 496Z" glyph-name="degree" horiz-adv-x="265" unicode="&#176;" /><glyph d="M80 596Q80 630 100.5 648Q121 666 149 666Q179 666 199.5 648Q220 630 220 596Q220 563 199.5 544.5Q179 526 149 526Q121 526 100.5 544.5Q80 563 80 596ZM291 595Q291 629 311 647Q331 665 360 665Q390 665 410 647Q430 629 430 595Q430 563 410 544.5Q390 526 360 526Q331 526 311 544.5Q291 563 291 595Z" glyph-name="dieresis" horiz-adv-x="511" unicode="&#168;" /><glyph d="M80 720Q80 754 100.5 772Q121 790 149 790Q179 790 199.5 772Q220 754 220 720Q220 687 199.5 668.5Q179 650 149 650Q121 650 100.5 668.5Q80 687 80 720ZM291 719Q291 753 311 771Q331 789 360 789Q390 789 410 771Q430 753 430 719Q430 687 410 668.5Q390 650 360 650Q331 650 311 668.5Q291 687 291 719Z" glyph-name="dieresis.cap" horiz-adv-x="511" unicode="&#58409;" /><glyph d="M45 214V282H453V214ZM192 81Q192 104 207 119.5Q222 135 245 135Q267 135 282.5 119.5Q298 104 298 81Q298 60 282.5 45Q267 30 245 30Q222 30 207 45Q192 60 192 81ZM192 408Q192 431 207 446.5Q222 462 245 462Q267 462 282.5 446.5Q298 431 298 408Q298 387 282.5 372Q267 357 245 357Q222 357 207 372Q192 387 192 408Z" glyph-name="divide" horiz-adv-x="498" unicode="&#247;" /><glyph d="M232 -12Q151 -9 100 24.5Q49 58 30 135L141 179Q149 138 172 113.5Q195 89 232 83V240Q188 255 154 271.5Q120 288 97.5 310Q75 332 63.5 361Q52 390 52 428Q52 473 67 505Q82 537 107.5 557.5Q133 578 165 588.5Q197 599 232 601V684H282V601Q320 598 352.5 588.5Q385 579 409.5 560.5Q434 542 449 514.5Q464 487 468 448L348 420Q345 455 327.5 477Q310 499 282 505V351L289 349Q331 335 364 319.5Q397 304 420.5 282.5Q444 261 456 231.5Q468 202 468 160Q468 118 453.5 87.5Q439 57 414 36.5Q389 16 355 4.5Q321 -7 282 -10V-106H232ZM347 146Q347 174 332.5 190.5Q318 207 282 222V84Q311 89 329 104Q347 119 347 146ZM175 438Q175 412 189.5 396.5Q204 381 232 369V505Q206 500 190.5 483.5Q175 467 175 438Z" glyph-name="dollar" horiz-adv-x="516" unicode="$" /><glyph d="M80 602Q80 636 102 655Q124 674 154 674Q187 674 209 655Q231 636 231 602Q231 569 209 550Q187 531 154 531Q124 531 102 550Q80 569 80 602Z" glyph-name="dotaccent" horiz-adv-x="311" unicode="&#729;" /><glyph d="M80 730Q80 765 101.5 783.5Q123 802 154 802Q187 802 209 783.5Q231 765 231 730Q231 697 209 678Q187 659 154 659Q123 659 101.5 678Q80 697 80 730Z" glyph-name="dotaccent.cap" horiz-adv-x="311" unicode="&#58408;" /><glyph d="M185 462V0H66V462Z" glyph-name="dotlessi" horiz-adv-x="251" unicode="&#305;" /><glyph d="M185 462V1Q185 -56 167 -96.5Q149 -137 116.5 -161.5Q84 -186 38 -195.5Q-8 -205 -64 -202V-102Q-31 -106 -7 -102.5Q17 -99 33.5 -86Q50 -73 58 -48.5Q66 -24 66 14V462Z" glyph-name="dotlessj" horiz-adv-x="251" unicode="&#567;" /><glyph d="M257 80Q288 80 310.5 94.5Q333 109 345 147L447 114Q439 79 420 55Q401 31 375.5 16Q350 1 318.5 -5.5Q287 -12 253 -12Q205 -12 165 4Q125 20 96.5 50Q68 80 52 124Q36 168 36 225Q36 344 95 408.5Q154 473 256 473Q304 473 339.5 458Q375 443 399 416Q423 389 435 352Q447 315 447 271Q447 254 445.5 238.5Q444 223 440 209H151Q153 151 179.5 115.5Q206 80 257 80ZM332 280Q333 285 333 288.5Q333 292 333 297Q333 334 312 358.5Q291 383 251 383Q209 383 184 355.5Q159 328 154 280Z" glyph-name="e" horiz-adv-x="485" unicode="e" /><glyph d="M257 80Q288 80 310.5 94.5Q333 109 345 147L447 114Q439 79 420 55Q401 31 375.5 16Q350 1 318.5 -5.5Q287 -12 253 -12Q205 -12 165 4Q125 20 96.5 50Q68 80 52 124Q36 168 36 225Q36 344 95 408.5Q154 473 256 473Q304 473 339.5 458Q375 443 399 416Q423 389 435 352Q447 315 447 271Q447 254 445.5 238.5Q444 223 440 209H151Q153 151 179.5 115.5Q206 80 257 80ZM332 280Q333 285 333 288.5Q333 292 333 297Q333 334 312 358.5Q291 383 251 383Q209 383 184 355.5Q159 328 154 280ZM186 527 257 678H409L293 527Z" glyph-name="eacute" horiz-adv-x="485" unicode="&#233;" /><glyph d="M257 80Q288 80 310.5 94.5Q333 109 345 147L447 114Q439 79 420 55Q401 31 375.5 16Q350 1 318.5 -5.5Q287 -12 253 -12Q205 -12 165 4Q125 20 96.5 50Q68 80 52 124Q36 168 36 225Q36 344 95 408.5Q154 473 256 473Q304 473 339.5 458Q375 443 399 416Q423 389 435 352Q447 315 447 271Q447 254 445.5 238.5Q444 223 440 209H151Q153 151 179.5 115.5Q206 80 257 80ZM332 280Q333 285 333 288.5Q333 292 333 297Q333 334 312 358.5Q291 383 251 383Q209 383 184 355.5Q159 328 154 280ZM251 522Q214 522 186.5 533.5Q159 545 141 565.5Q123 586 114.5 614Q106 642 106 674H196Q197 644 207 626Q217 608 251 608Q286 608 295.5 626Q305 644 307 674H397Q397 642 388 614Q379 586 361 565.5Q343 545 315.5 533.5Q288 522 251 522Z" glyph-name="ebreve" horiz-adv-x="485" unicode="&#277;" /><glyph d="M257 80Q288 80 310.5 94.5Q333 109 345 147L447 114Q439 79 420 55Q401 31 375.5 16Q350 1 318.5 -5.5Q287 -12 253 -12Q205 -12 165 4Q125 20 96.5 50Q68 80 52 124Q36 168 36 225Q36 344 95 408.5Q154 473 256 473Q304 473 339.5 458Q375 443 399 416Q423 389 435 352Q447 315 447 271Q447 254 445.5 238.5Q444 223 440 209H151Q153 151 179.5 115.5Q206 80 257 80ZM332 280Q333 285 333 288.5Q333 292 333 297Q333 334 312 358.5Q291 383 251 383Q209 383 184 355.5Q159 328 154 280ZM215 525 83 680H196L228 643Q241 627 246 617Q249 612 249 608H254Q254 612 257 617Q259 622 263 628.5Q267 635 275 643L307 680H420L288 525Z" glyph-name="ecaron" horiz-adv-x="485" unicode="&#283;" /><glyph d="M257 80Q288 80 310.5 94.5Q333 109 345 147L447 114Q439 79 420 55Q401 31 375.5 16Q350 1 318.5 -5.5Q287 -12 253 -12Q205 -12 165 4Q125 20 96.5 50Q68 80 52 124Q36 168 36 225Q36 344 95 408.5Q154 473 256 473Q304 473 339.5 458Q375 443 399 416Q423 389 435 352Q447 315 447 271Q447 254 445.5 238.5Q444 223 440 209H151Q153 151 179.5 115.5Q206 80 257 80ZM332 280Q333 285 333 288.5Q333 292 333 297Q333 334 312 358.5Q291 383 251 383Q209 383 184 355.5Q159 328 154 280ZM290 680 422 525H309L277 562Q269 570 265 576.5Q261 583 259 588Q256 593 256 597H251Q251 593 248 588Q243 578 230 562L198 525H85L217 680Z" glyph-name="ecircumflex" horiz-adv-x="485" unicode="&#234;" /><glyph d="M257 80Q288 80 310.5 94.5Q333 109 345 147L447 114Q439 79 420 55Q401 31 375.5 16Q350 1 318.5 -5.5Q287 -12 253 -12Q205 -12 165 4Q125 20 96.5 50Q68 80 52 124Q36 168 36 225Q36 344 95 408.5Q154 473 256 473Q304 473 339.5 458Q375 443 399 416Q423 389 435 352Q447 315 447 271Q447 254 445.5 238.5Q444 223 440 209H151Q153 151 179.5 115.5Q206 80 257 80ZM332 280Q333 285 333 288.5Q333 292 333 297Q333 334 312 358.5Q291 383 251 383Q209 383 184 355.5Q159 328 154 280ZM79 596Q79 630 99.5 648Q120 666 148 666Q178 666 198.5 648Q219 630 219 596Q219 563 198.5 544.5Q178 526 148 526Q120 526 99.5 544.5Q79 563 79 596ZM290 595Q290 629 310 647Q330 665 359 665Q389 665 409 647Q429 629 429 595Q429 563 409 544.5Q389 526 359 526Q330 526 310 544.5Q290 563 290 595Z" glyph-name="edieresis" horiz-adv-x="485" unicode="&#235;" /><glyph d="M257 80Q288 80 310.5 94.5Q333 109 345 147L447 114Q439 79 420 55Q401 31 375.5 16Q350 1 318.5 -5.5Q287 -12 253 -12Q205 -12 165 4Q125 20 96.5 50Q68 80 52 124Q36 168 36 225Q36 344 95 408.5Q154 473 256 473Q304 473 339.5 458Q375 443 399 416Q423 389 435 352Q447 315 447 271Q447 254 445.5 238.5Q444 223 440 209H151Q153 151 179.5 115.5Q206 80 257 80ZM332 280Q333 285 333 288.5Q333 292 333 297Q333 334 312 358.5Q291 383 251 383Q209 383 184 355.5Q159 328 154 280ZM173 594Q173 628 195 647Q217 666 247 666Q280 666 302 647Q324 628 324 594Q324 561 302 542Q280 523 247 523Q217 523 195 542Q173 561 173 594Z" glyph-name="edotaccent" horiz-adv-x="485" unicode="&#279;" /><glyph d="M257 80Q288 80 310.5 94.5Q333 109 345 147L447 114Q439 79 420 55Q401 31 375.5 16Q350 1 318.5 -5.5Q287 -12 253 -12Q205 -12 165 4Q125 20 96.5 50Q68 80 52 124Q36 168 36 225Q36 344 95 408.5Q154 473 256 473Q304 473 339.5 458Q375 443 399 416Q423 389 435 352Q447 315 447 271Q447 254 445.5 238.5Q444 223 440 209H151Q153 151 179.5 115.5Q206 80 257 80ZM332 280Q333 285 333 288.5Q333 292 333 297Q333 334 312 358.5Q291 383 251 383Q209 383 184 355.5Q159 328 154 280ZM202 527 86 678H238L310 527Z" glyph-name="egrave" horiz-adv-x="485" unicode="&#232;" /><glyph d="M256 -12Q203 -12 163 0Q123 12 96 33.5Q69 55 55.5 84.5Q42 114 42 150Q42 207 73 245.5Q104 284 156 298V303Q100 316 77.5 354.5Q55 393 55 440Q55 475 69 504.5Q83 534 109 555.5Q135 577 172 589Q209 601 256 601Q303 601 340.5 589Q378 577 404 555.5Q430 534 444 504.5Q458 475 458 440Q458 393 435.5 354.5Q413 316 357 303V298Q409 284 440 245.5Q471 207 471 150Q471 114 457 84.5Q443 55 416 33.5Q389 12 348.5 0Q308 -12 256 -12ZM256 514Q214 514 192.5 490.5Q171 467 171 432Q171 387 196 366Q221 345 256 345Q291 345 316.5 366Q342 387 342 432Q342 467 320 490.5Q298 514 256 514ZM256 254Q237 254 220 248.5Q203 243 189.5 232Q176 221 168 204.5Q160 188 160 166Q160 126 185.5 101Q211 76 256 76Q302 76 327.5 101Q353 126 353 166Q353 188 345 204.5Q337 221 323.5 232Q310 243 292.5 248.5Q275 254 256 254Z" glyph-name="eight" horiz-adv-x="513" unicode="8" /><glyph d="M65 73Q65 108 88 131.5Q111 155 144 155Q179 155 202 131.5Q225 108 225 73Q225 40 202 17.5Q179 -5 144 -5Q111 -5 88 17.5Q65 40 65 73ZM355 73Q355 108 378 131.5Q401 155 434 155Q469 155 492 131.5Q515 108 515 73Q515 40 492 17.5Q469 -5 434 -5Q401 -5 378 17.5Q355 40 355 73ZM645 73Q645 108 668 131.5Q691 155 724 155Q759 155 782 131.5Q805 108 805 73Q805 40 782 17.5Q759 -5 724 -5Q691 -5 668 17.5Q645 40 645 73Z" glyph-name="ellipsis" horiz-adv-x="870" unicode="&#8230;" /><glyph d="M257 80Q288 80 310.5 94.5Q333 109 345 147L447 114Q439 79 420 55Q401 31 375.5 16Q350 1 318.5 -5.5Q287 -12 253 -12Q205 -12 165 4Q125 20 96.5 50Q68 80 52 124Q36 168 36 225Q36 344 95 408.5Q154 473 256 473Q304 473 339.5 458Q375 443 399 416Q423 389 435 352Q447 315 447 271Q447 254 445.5 238.5Q444 223 440 209H151Q153 151 179.5 115.5Q206 80 257 80ZM332 280Q333 285 333 288.5Q333 292 333 297Q333 334 312 358.5Q291 383 251 383Q209 383 184 355.5Q159 328 154 280ZM108 545V642H391V545Z" glyph-name="emacron" horiz-adv-x="485" unicode="&#275;" /><glyph d="M64 294H936V213H64Z" glyph-name="emdash" horiz-adv-x="1000" unicode="&#8212;" /><glyph d="M64 294H436V213H64Z" glyph-name="endash" horiz-adv-x="500" unicode="&#8211;" /><glyph d="M66 0V462H166L180 373Q199 425 236.5 449Q274 473 328 473Q355 473 380 465Q405 457 424 439.5Q443 422 454 394.5Q465 367 465 328V1Q465 -56 447 -96.5Q429 -137 396.5 -161.5Q364 -186 318.5 -195.5Q273 -205 217 -202V-102Q249 -106 273.5 -102.5Q298 -99 314 -86Q330 -73 338 -49Q346 -25 346 13V286Q346 326 331 349Q316 372 278 372Q260 372 243 366.5Q226 361 213.5 348Q201 335 193 313Q185 291 185 258V0Z" glyph-name="eng" horiz-adv-x="526" unicode="&#331;" /><glyph d="M177 -101Q177 -71 188 -48.5Q199 -26 216 -9Q134 2 85 62Q36 122 36 225Q36 344 95 408.5Q154 473 256 473Q304 473 339.5 458Q375 443 399 416Q423 389 435 352Q447 315 447 271Q447 254 445.5 238.5Q444 223 440 209H151Q153 151 179.5 115.5Q206 80 257 80Q288 80 310.5 94.5Q333 109 345 147L447 114Q441 87 429 68.5Q417 50 402.5 36.5Q388 23 371.5 15Q355 7 339 1Q303 -12 289.5 -31.5Q276 -51 276 -77Q276 -104 289.5 -118.5Q303 -133 326 -133Q346 -133 362 -124.5Q378 -116 393 -99L422 -159Q381 -211 301 -211Q276 -211 253.5 -205Q231 -199 214 -185.5Q197 -172 187 -151Q177 -130 177 -101ZM332 280Q333 285 333 288.5Q333 292 333 297Q333 334 312 358.5Q291 383 251 383Q209 383 184 355.5Q159 328 154 280Z" glyph-name="eogonek" horiz-adv-x="485" unicode="&#281;" /><glyph d="M45 141V208H453V141ZM45 284V351H453V284Z" glyph-name="equal" horiz-adv-x="498" unicode="=" /><glyph d="M105 536 225 560Q215 569 201 578.5Q187 588 171.5 598Q156 608 140.5 616.5Q125 625 112 632L226 677Q259 660 287.5 640.5Q316 621 342 596L447 620L463 571L381 552Q427 493 452.5 420Q478 347 478 265Q478 193 462 141Q446 89 417 56Q388 23 347 7Q306 -9 256 -9Q156 -9 96 50Q36 109 36 230Q36 290 52.5 334Q69 378 96 406.5Q123 435 157.5 448.5Q192 462 228 462Q273 462 300.5 446Q328 430 348 402H352Q336 440 317 467.5Q298 495 269 521L116 488ZM359 226Q359 298 332.5 335Q306 372 255 372Q155 372 155 226Q155 156 180.5 119.5Q206 83 257 83Q310 83 334.5 119.5Q359 156 359 226Z" glyph-name="eth" horiz-adv-x="514" unicode="&#240;" /><glyph d="M193 589 159 190H79L46 589ZM43 67Q43 99 65 119Q87 139 119 139Q152 139 174.5 119Q197 99 197 67Q197 35 174.5 15Q152 -5 119 -5Q87 -5 65 15Q43 35 43 67Z" glyph-name="exclam" horiz-adv-x="238" unicode="!" /><glyph d="M46 -126 79 273H159L193 -126ZM43 396Q43 428 65 448Q87 468 119 468Q152 468 174.5 448Q197 428 197 396Q197 364 174.5 344Q152 324 119 324Q87 324 65 344Q43 364 43 396Z" glyph-name="exclamdown" horiz-adv-x="238" unicode="&#161;" /><glyph d="M12 369V462H80V502Q80 550 94 583.5Q108 617 132 637.5Q156 658 188 667Q220 676 256 676Q288 676 314 670.5Q340 665 363 655L344 555Q327 565 308.5 570Q290 575 267 575Q236 575 217.5 559Q199 543 199 498V462H317V369H199V0H80V369Z" glyph-name="f" horiz-adv-x="307" unicode="f" /><glyph d="M466 186Q466 155 475 133.5Q484 112 498 99Q512 86 529 80.5Q546 75 563 75Q609 75 641.5 113Q674 151 674 231Q674 307 646.5 342Q619 377 572 377Q551 377 532 369.5Q513 362 498.5 347Q484 332 475 310.5Q466 289 466 261ZM347 562Q330 573 312.5 578.5Q295 584 273 584Q241 584 220 566.5Q199 549 199 504V462H292V369H199V0H80V369H12V462H80V500Q80 549 95.5 582.5Q111 616 136 637Q161 658 193.5 667Q226 676 260 676Q292 676 315.5 670.5Q339 665 362 655L467 668V375Q485 428 525.5 450.5Q566 473 615 473Q700 473 747.5 413.5Q795 354 795 242Q795 186 781.5 139.5Q768 93 742.5 59.5Q717 26 680.5 7Q644 -12 597 -12Q537 -12 504 11Q471 34 460 67L430 0H347Z" glyph-name="f_b" horiz-adv-x="831" unicode="&#58241;" /><glyph d="M734 186Q734 155 743 133.5Q752 112 765.5 99Q779 86 796 80.5Q813 75 830 75Q853 75 873.5 84.5Q894 94 909 113.5Q924 133 933 162Q942 191 942 231Q942 307 914.5 342Q887 377 839 377Q819 377 800 369.5Q781 362 766.5 347Q752 332 743 310.5Q734 289 734 261ZM734 375Q753 428 793.5 450.5Q834 473 883 473Q968 473 1015.5 413.5Q1063 354 1063 242Q1063 186 1049.5 139.5Q1036 93 1010.5 59.5Q985 26 948.5 7Q912 -12 865 -12Q805 -12 772 11Q739 34 728 67L697 0H615V562Q598 573 580.5 578.5Q563 584 541 584Q509 584 488 566.5Q467 549 467 504V462H559V369H467V0H347V369H199V0H80V369H12V462H80V499Q80 547 94.5 579Q109 611 132 630.5Q155 650 184 658Q213 666 242 666Q258 666 270 665Q282 664 292.5 662Q303 660 312.5 656.5Q322 653 333 648L314 547Q299 558 285.5 562Q272 566 257 566Q228 566 213.5 550Q199 534 199 498V462H347V500Q347 549 362.5 582.5Q378 616 403.5 637Q429 658 461.5 667Q494 676 528 676Q560 676 583.5 670.5Q607 665 630 655L734 668Z" glyph-name="f_f_b" horiz-adv-x="1099" unicode="&#58242;" /><glyph d="M734 374Q752 425 788 449Q824 473 877 473Q904 473 929 465Q954 457 973 439.5Q992 422 1003 394.5Q1014 367 1014 328V0H895V286Q895 326 880 349Q865 372 827 372Q809 372 792.5 366.5Q776 361 763 348Q750 335 742 313Q734 291 734 258V0H615V562Q598 573 580.5 578.5Q563 584 541 584Q509 584 488 566.5Q467 549 467 504V462H559V369H467V0H347V369H199V0H80V369H12V462H80V499Q80 547 94.5 579Q109 611 132 630.5Q155 650 184 658Q213 666 242 666Q258 666 270 665Q282 664 292.5 662Q303 660 312.5 656.5Q322 653 333 648L314 547Q299 558 285.5 562Q272 566 257 566Q228 566 213.5 550Q199 534 199 498V462H347V500Q347 549 362.5 582.5Q378 616 403.5 637Q429 658 461.5 667Q494 676 528 676Q560 676 583.5 670.5Q607 665 630 655L734 668Z" glyph-name="f_f_h" horiz-adv-x="1075" unicode="&#58243;" /><glyph d="M467 0H347V369H199V0H80V369H12V462H80V499Q80 547 94.5 579Q109 611 132 630.5Q155 650 184 658Q213 666 242 666Q258 666 270 665Q282 664 292.5 662Q303 660 312.5 656.5Q322 653 333 648L314 547Q299 558 285.5 562Q272 566 257 566Q228 566 213.5 550Q199 534 199 498V462H347V497Q347 548 364.5 582.5Q382 617 410 638Q438 659 472.5 667.5Q507 676 541 676Q621 676 678 642L637 545Q620 558 597 566.5Q574 575 548 575Q532 575 517.5 571Q503 567 491.5 558Q480 549 473.5 533Q467 517 467 493V462H734V1Q734 -56 716 -96.5Q698 -137 665.5 -161.5Q633 -186 587.5 -195.5Q542 -205 486 -202V-102Q519 -106 543 -102.5Q567 -99 583 -86Q599 -73 607 -48.5Q615 -24 615 14V369H467Z" glyph-name="f_f_j" horiz-adv-x="800" unicode="&#58244;" /><glyph d="M734 288H759L889 462H1028L859 247L1043 0H902L762 196H734V0H615V562Q598 573 580.5 578.5Q563 584 541 584Q509 584 488 566.5Q467 549 467 504V462H559V369H467V0H347V369H199V0H80V369H12V462H80V499Q80 547 94.5 579Q109 611 132 630.5Q155 650 184 658Q213 666 242 666Q258 666 270 665Q282 664 292.5 662Q303 660 312.5 656.5Q322 653 333 648L314 547Q299 558 285.5 562Q272 566 257 566Q228 566 213.5 550Q199 534 199 498V462H347V500Q347 549 362.5 582.5Q378 616 403.5 637Q429 658 461.5 667Q494 676 528 676Q560 676 583.5 670.5Q607 665 630 655L734 668Z" glyph-name="f_f_k" horiz-adv-x="1051" unicode="&#58245;" /><glyph d="M467 374Q484 425 520 449Q556 473 609 473Q636 473 661 465Q686 457 705 439.5Q724 422 735.5 394.5Q747 367 747 328V0H627V286Q627 326 612 349Q597 372 559 372Q541 372 524.5 366.5Q508 361 495.5 348Q483 335 475 313Q467 291 467 258V0H347V562Q330 573 312.5 578.5Q295 584 273 584Q241 584 220 566.5Q199 549 199 504V462H292V369H199V0H80V369H12V462H80V500Q80 549 95.5 582.5Q111 616 136 637Q161 658 193.5 667Q226 676 260 676Q292 676 315.5 670.5Q339 665 362 655L467 668Z" glyph-name="f_h" horiz-adv-x="808" unicode="&#58246;" /><glyph d="M347 369H199V0H80V369H12V462H80V497Q80 548 97.5 582.5Q115 617 142.5 638Q170 659 204.5 667.5Q239 676 273 676Q352 676 411 642L369 545Q352 558 329 566.5Q306 575 280 575Q264 575 249.5 571Q235 567 223.5 558Q212 549 205.5 533Q199 517 199 493V462H467V1Q467 -56 449 -96.5Q431 -137 398.5 -161.5Q366 -186 320 -195.5Q274 -205 218 -202V-102Q251 -106 275 -102.5Q299 -99 315 -86Q331 -73 339 -48.5Q347 -24 347 14Z" glyph-name="f_j" horiz-adv-x="533" unicode="&#58247;" /><glyph d="M467 288H491L621 462H760L592 247L775 0H634L494 196H467V0H347V562Q330 573 312.5 578.5Q295 584 273 584Q241 584 220 566.5Q199 549 199 504V462H292V369H199V0H80V369H12V462H80V500Q80 549 95.5 582.5Q111 616 136 637Q161 658 193.5 667Q226 676 260 676Q292 676 315.5 670.5Q339 665 362 655L467 668Z" glyph-name="f_k" horiz-adv-x="783" unicode="&#58248;" /><glyph d="M199 369V0H80V369H12V462H80V499Q80 547 94.5 579Q109 611 132 630.5Q155 650 184 658Q213 666 242 666Q258 666 270 665Q282 664 292.5 662Q303 660 312.5 656.5Q322 653 333 648L314 547Q299 558 285.5 562Q272 566 257 566Q228 566 213.5 550Q199 534 199 498V462H347V502Q347 550 362 583.5Q377 617 401.5 637Q426 657 458 666.5Q490 676 524 676Q553 676 579.5 671Q606 666 631 658L612 548Q594 560 576.5 566.5Q559 573 537 573Q506 573 486.5 556.5Q467 540 467 495V462H585V369H467V0H347V369Z" glyph-name="ff" horiz-adv-x="575" unicode="&#58249;" /><glyph d="M347 497Q347 548 364.5 582.5Q382 617 410 638Q438 659 472.5 667.5Q507 676 541 676Q621 676 678 642L637 545Q620 558 597 566.5Q574 575 548 575Q532 575 517.5 571Q503 567 491.5 558Q480 549 473.5 533Q467 517 467 493V462H734V0H615V369H467V0H347V369H199V0H80V369H12V462H80V499Q80 547 94.5 579Q109 611 132 630.5Q155 650 184 658Q213 666 242 666Q258 666 270 665Q282 664 292.5 662Q303 660 312.5 656.5Q322 653 333 648L314 547Q299 558 285.5 562Q272 566 257 566Q228 566 213.5 550Q199 534 199 498V462H347Z" glyph-name="ffi" horiz-adv-x="800" unicode="&#58250;" /><glyph d="M347 500Q347 549 362.5 582.5Q378 616 403.5 637Q429 658 461.5 667Q494 676 528 676Q560 676 583.5 670.5Q607 665 630 655L734 668V136Q734 114 746 104.5Q758 95 776 95Q796 95 811 102L806 2Q767 -9 736 -9Q712 -9 690 -3Q668 3 651.5 16.5Q635 30 625 51.5Q615 73 615 103V562Q598 573 580.5 578.5Q563 584 541 584Q509 584 488 566.5Q467 549 467 504V462H559V369H467V0H347V369H199V0H80V369H12V462H80V499Q80 547 94.5 579Q109 611 132 630.5Q155 650 184 658Q213 666 242 666Q258 666 270 665Q282 664 292.5 662Q303 660 312.5 656.5Q322 653 333 648L314 547Q299 558 285.5 562Q272 566 257 566Q228 566 213.5 550Q199 534 199 498V462H347Z" glyph-name="ffl" horiz-adv-x="837" unicode="&#58251;" /><glyph d="M12 369V462H80V497Q80 548 97.5 582.5Q115 617 142.5 638Q170 659 204.5 667.5Q239 676 273 676Q352 676 411 642L369 545Q352 558 329 566.5Q306 575 280 575Q264 575 249.5 571Q235 567 223.5 558Q212 549 205.5 533Q199 517 199 493V462H467V0H347V369H199V0H80V369Z" glyph-name="fi" horiz-adv-x="533" unicode="&#58252;" /><glyph d="M92 589H413V484H194L188 344Q202 357 221 364Q240 371 267 371Q342 371 389 325Q436 279 436 191Q436 140 420 101.5Q404 63 375 38Q346 13 306 0.5Q266 -12 218 -12Q126 -12 75.5 24.5Q25 61 14 128L121 169Q126 122 152 100Q178 78 223 78Q267 78 295 102.5Q323 127 323 182Q323 237 297 260Q271 283 233 283Q209 283 194 276Q179 269 168 258H81Z" glyph-name="five" horiz-adv-x="481" unicode="5" /><glyph d="M538 2Q519 -3 502 -6Q485 -9 468 -9Q444 -9 422 -3Q400 3 383.5 16.5Q367 30 357 51.5Q347 73 347 103V562Q330 573 312.5 578.5Q295 584 273 584Q241 584 220 566.5Q199 549 199 504V462H292V369H199V0H80V369H12V462H80V500Q80 549 95.5 582.5Q111 616 136 637Q161 658 193.5 667Q226 676 260 676Q292 676 315.5 670.5Q339 665 362 655L467 668V136Q467 114 478.5 104.5Q490 95 508 95Q528 95 543 102Z" glyph-name="fl" horiz-adv-x="569" unicode="&#58253;" /><glyph d="M95 255H28L44 348H112L129 434Q138 480 157.5 512Q177 544 204 563.5Q231 583 263.5 591.5Q296 600 330 600Q366 600 405 586.5Q444 573 470 540L399 451Q385 473 365.5 485Q346 497 323 497Q267 497 250 426L233 348H351L335 255H216L162 0H42Z" glyph-name="florin" horiz-adv-x="456" unicode="&#402;" /><glyph d="M303 141H18V220L310 589H423V231H520V141H423V0H303ZM303 354Q303 374 303.5 392.5Q304 411 305 425Q306 441 308 455H304Q299 445 292 434Q286 424 277.5 411Q269 398 258 384L188 290Q177 275 167 264.5Q157 254 149 246Q140 237 132 231V227Q138 228 149 229Q157 230 170.5 230.5Q184 231 202 231H303Z" glyph-name="four" horiz-adv-x="548" unicode="4" /><glyph d="M188 -128H12V-65L189 150H278V-62H330V-128H278V-203H188ZM190 7Q190 21 190.5 33.5Q191 46 192 56Q193 67 194 78H190Q187 71 183 62Q179 54 173 45Q167 36 159 25L124 -19Q115 -30 107 -38.5Q99 -47 92 -53Q84 -60 77 -65V-69Q83 -68 91 -67Q98 -66 108.5 -65Q119 -64 133 -64H190Z" glyph-name="four.inf" horiz-adv-x="350" unicode="&#58741;" /><glyph d="M199 589H274L-33 0H-106Z" glyph-name="fraction" horiz-adv-x="168" unicode="&#8260;" /><glyph d="M236 473Q316 473 368 441Q384 455 390.5 469.5Q397 484 403 511L499 479Q495 445 471 423Q447 401 418 393Q439 360 439 310Q439 270 423 240Q407 210 379 190Q351 170 313.5 160Q276 150 234 150Q217 150 201 152Q185 154 177 157Q163 149 157.5 138.5Q152 128 152 116Q152 84 193 84H318Q397 84 439 48Q481 12 481 -49Q481 -97 458 -128.5Q435 -160 398 -178.5Q361 -197 313.5 -204Q266 -211 218 -211Q177 -211 138.5 -205.5Q100 -200 71 -186.5Q42 -173 24.5 -150Q7 -127 7 -93Q7 -51 37 -26Q67 -1 128 4Q94 7 75.5 30Q57 53 57 83Q57 110 74.5 134.5Q92 159 131 170Q86 189 61.5 222.5Q37 256 37 310Q37 350 51.5 380.5Q66 411 92 431.5Q118 452 154.5 462.5Q191 473 236 473ZM117 -73Q117 -103 147 -116.5Q177 -130 231 -130Q302 -130 335 -116Q368 -102 368 -69Q368 -46 353.5 -34.5Q339 -23 304 -23H195Q160 -23 138.5 -35Q117 -47 117 -73ZM157 310Q157 275 177 252.5Q197 230 236 230Q274 230 295.5 250.5Q317 271 317 310Q317 351 295.5 371Q274 391 236 390Q198 390 177.5 369Q157 348 157 310Z" glyph-name="g" horiz-adv-x="496" unicode="g" /><glyph d="M236 473Q316 473 368 441Q384 455 390.5 469.5Q397 484 403 511L499 479Q495 445 471 423Q447 401 418 393Q439 360 439 310Q439 270 423 240Q407 210 379 190Q351 170 313.5 160Q276 150 234 150Q217 150 201 152Q185 154 177 157Q163 149 157.5 138.5Q152 128 152 116Q152 84 193 84H318Q397 84 439 48Q481 12 481 -49Q481 -97 458 -128.5Q435 -160 398 -178.5Q361 -197 313.5 -204Q266 -211 218 -211Q177 -211 138.5 -205.5Q100 -200 71 -186.5Q42 -173 24.5 -150Q7 -127 7 -93Q7 -51 37 -26Q67 -1 128 4Q94 7 75.5 30Q57 53 57 83Q57 110 74.5 134.5Q92 159 131 170Q86 189 61.5 222.5Q37 256 37 310Q37 350 51.5 380.5Q66 411 92 431.5Q118 452 154.5 462.5Q191 473 236 473ZM117 -73Q117 -103 147 -116.5Q177 -130 231 -130Q302 -130 335 -116Q368 -102 368 -69Q368 -46 353.5 -34.5Q339 -23 304 -23H195Q160 -23 138.5 -35Q117 -47 117 -73ZM157 310Q157 275 177 252.5Q197 230 236 230Q274 230 295.5 250.5Q317 271 317 310Q317 351 295.5 371Q274 391 236 390Q198 390 177.5 369Q157 348 157 310ZM241 522Q204 522 176.5 533.5Q149 545 131 565.5Q113 586 104.5 614Q96 642 96 674H186Q187 644 197 626Q207 608 241 608Q276 608 285.5 626Q295 644 297 674H387Q387 642 378 614Q369 586 351 565.5Q333 545 305.5 533.5Q278 522 241 522Z" glyph-name="gbreve" horiz-adv-x="496" unicode="&#287;" /><glyph d="M236 473Q316 473 368 441Q384 455 390.5 469.5Q397 484 403 511L499 479Q495 445 471 423Q447 401 418 393Q439 360 439 310Q439 270 423 240Q407 210 379 190Q351 170 313.5 160Q276 150 234 150Q217 150 201 152Q185 154 177 157Q163 149 157.5 138.5Q152 128 152 116Q152 84 193 84H318Q397 84 439 48Q481 12 481 -49Q481 -97 458 -128.5Q435 -160 398 -178.5Q361 -197 313.5 -204Q266 -211 218 -211Q177 -211 138.5 -205.5Q100 -200 71 -186.5Q42 -173 24.5 -150Q7 -127 7 -93Q7 -51 37 -26Q67 -1 128 4Q94 7 75.5 30Q57 53 57 83Q57 110 74.5 134.5Q92 159 131 170Q86 189 61.5 222.5Q37 256 37 310Q37 350 51.5 380.5Q66 411 92 431.5Q118 452 154.5 462.5Q191 473 236 473ZM117 -73Q117 -103 147 -116.5Q177 -130 231 -130Q302 -130 335 -116Q368 -102 368 -69Q368 -46 353.5 -34.5Q339 -23 304 -23H195Q160 -23 138.5 -35Q117 -47 117 -73ZM157 310Q157 275 177 252.5Q197 230 236 230Q274 230 295.5 250.5Q317 271 317 310Q317 351 295.5 371Q274 391 236 390Q198 390 177.5 369Q157 348 157 310ZM290 686 422 531H309L277 568Q269 576 265 582.5Q261 589 259 594Q256 599 256 603H251Q251 599 248 594Q243 584 230 568L198 531H85L217 686Z" glyph-name="gcircumflex" horiz-adv-x="496" unicode="&#285;" /><glyph d="M236 473Q316 473 368 441Q384 455 390.5 469.5Q397 484 403 511L499 479Q495 445 471 423Q447 401 418 393Q439 360 439 310Q439 270 423 240Q407 210 379 190Q351 170 313.5 160Q276 150 234 150Q217 150 201 152Q185 154 177 157Q163 149 157.5 138.5Q152 128 152 116Q152 84 193 84H318Q397 84 439 48Q481 12 481 -49Q481 -97 458 -128.5Q435 -160 398 -178.5Q361 -197 313.5 -204Q266 -211 218 -211Q177 -211 138.5 -205.5Q100 -200 71 -186.5Q42 -173 24.5 -150Q7 -127 7 -93Q7 -51 37 -26Q67 -1 128 4Q94 7 75.5 30Q57 53 57 83Q57 110 74.5 134.5Q92 159 131 170Q86 189 61.5 222.5Q37 256 37 310Q37 350 51.5 380.5Q66 411 92 431.5Q118 452 154.5 462.5Q191 473 236 473ZM117 -73Q117 -103 147 -116.5Q177 -130 231 -130Q302 -130 335 -116Q368 -102 368 -69Q368 -46 353.5 -34.5Q339 -23 304 -23H195Q160 -23 138.5 -35Q117 -47 117 -73ZM157 310Q157 275 177 252.5Q197 230 236 230Q274 230 295.5 250.5Q317 271 317 310Q317 351 295.5 371Q274 391 236 390Q198 390 177.5 369Q157 348 157 310ZM168 609Q168 669 203.5 694.5Q239 720 304 720V678Q272 677 256 669Q240 661 240 638Q267 643 287.5 629Q308 615 308 585Q308 555 289 539.5Q270 524 242 524Q210 524 189 547.5Q168 571 168 609Z" glyph-name="gcommaaccent" horiz-adv-x="496" unicode="&#291;" /><glyph d="M236 473Q316 473 368 441Q384 455 390.5 469.5Q397 484 403 511L499 479Q495 445 471 423Q447 401 418 393Q439 360 439 310Q439 270 423 240Q407 210 379 190Q351 170 313.5 160Q276 150 234 150Q217 150 201 152Q185 154 177 157Q163 149 157.5 138.5Q152 128 152 116Q152 84 193 84H318Q397 84 439 48Q481 12 481 -49Q481 -97 458 -128.5Q435 -160 398 -178.5Q361 -197 313.5 -204Q266 -211 218 -211Q177 -211 138.5 -205.5Q100 -200 71 -186.5Q42 -173 24.5 -150Q7 -127 7 -93Q7 -51 37 -26Q67 -1 128 4Q94 7 75.5 30Q57 53 57 83Q57 110 74.5 134.5Q92 159 131 170Q86 189 61.5 222.5Q37 256 37 310Q37 350 51.5 380.5Q66 411 92 431.5Q118 452 154.5 462.5Q191 473 236 473ZM117 -73Q117 -103 147 -116.5Q177 -130 231 -130Q302 -130 335 -116Q368 -102 368 -69Q368 -46 353.5 -34.5Q339 -23 304 -23H195Q160 -23 138.5 -35Q117 -47 117 -73ZM157 310Q157 275 177 252.5Q197 230 236 230Q274 230 295.5 250.5Q317 271 317 310Q317 351 295.5 371Q274 391 236 390Q198 390 177.5 369Q157 348 157 310ZM162 596Q162 630 184 649Q206 668 236 668Q269 668 291 649Q313 630 313 596Q313 563 291 544Q269 525 236 525Q206 525 184 544Q162 563 162 596Z" glyph-name="gdotaccent" horiz-adv-x="496" unicode="&#289;" /><glyph d="M66 426Q66 496 84 544Q102 592 133.5 621.5Q165 651 207.5 663.5Q250 676 299 676Q347 676 383 664Q419 652 444 630Q469 608 481.5 578.5Q494 549 494 513Q494 452 463.5 418Q433 384 378 376V372Q452 366 491.5 319.5Q531 273 531 189Q531 96 484.5 42Q438 -12 344 -12Q300 -12 269 2Q238 16 218 48L255 136Q272 109 292 95.5Q312 82 340 82Q375 82 394.5 107.5Q414 133 414 195Q414 255 382.5 288Q351 321 290 321H237V416H290Q336 416 357.5 437Q379 458 379 496Q379 535 356.5 557Q334 579 291 579Q241 579 213 545Q185 511 185 429V0H66Z" glyph-name="germandbls" horiz-adv-x="565" unicode="&#223;" /><glyph d="M196 527 80 678H232L304 527Z" glyph-name="grave" horiz-adv-x="385" unicode="`" /><glyph d="M187 649 80 785H232L296 649Z" glyph-name="grave.cap" horiz-adv-x="376" unicode="&#58401;" /><glyph d="M46 404 93 459 346 247 96 32 48 88 240 247Z" glyph-name="greater" horiz-adv-x="393" unicode="&gt;" /><glyph d="M66 420 111 478 373 296 114 111 67 171 250 297ZM45 20V87H379V20Z" glyph-name="greaterequal" horiz-adv-x="424" unicode="&#8805;" /><glyph d="M350 232Q356 229 364 224Q371 219 380.5 211Q390 203 403 189L497 81L437 23L243 235L437 448L497 387L402 280Q389 266 380 257.5Q371 249 364 244Q356 239 350 236ZM137 232Q143 229 151 224Q158 219 167.5 211Q177 203 190 189L285 81L224 23L30 235L224 448L285 387L190 280Q177 266 167.5 257.5Q158 249 151 244Q143 239 137 236Z" glyph-name="guillemotleft" horiz-adv-x="528" unicode="&#171;" /><glyph d="M178 236Q172 239 164 244Q157 249 147.5 257.5Q138 266 126 280L31 387L91 448L285 235L91 23L30 81L125 189Q137 203 147 211Q157 219 164 224Q172 229 178 232ZM391 236Q385 239 377 244Q370 249 360 257.5Q350 266 338 280L243 387L304 448L498 235L304 23L243 81L338 189Q350 203 359.5 211Q369 219 376 224Q384 229 391 232Z" glyph-name="guillemotright" horiz-adv-x="528" unicode="&#187;" /><glyph d="M137 232Q143 229 151 224Q158 219 167.5 211Q177 203 190 189L285 81L224 23L30 235L224 448L285 387L190 280Q177 266 167.5 257.5Q158 249 151 244Q143 239 137 236Z" glyph-name="guilsinglleft" horiz-adv-x="315" unicode="&#8249;" /><glyph d="M178 236Q172 239 164 244Q157 249 147.5 257.5Q138 266 126 280L31 387L91 448L285 235L91 23L30 81L125 189Q137 203 147 211Q157 219 164 224Q172 229 178 232Z" glyph-name="guilsinglright" horiz-adv-x="315" unicode="&#8250;" /><glyph d="M185 374Q220 473 328 473Q355 473 380 465Q405 457 424 439.5Q443 422 454 394.5Q465 367 465 328V0H346V286Q346 326 331 349Q316 372 278 372Q260 372 243 366.5Q226 361 213.5 348Q201 335 193 313Q185 291 185 258V0H66V668H185Z" glyph-name="h" horiz-adv-x="526" unicode="h" /><glyph d="M185 598H326V522H185V374Q220 473 328 473Q355 473 380 465Q405 457 424 439.5Q443 422 454 394.5Q465 367 465 328V0H346V286Q346 326 331 349Q316 372 278 372Q260 372 243 366.5Q226 361 213.5 348Q201 335 193 313Q185 291 185 258V0H66V522H-5V598H66V668H185Z" glyph-name="hbar" horiz-adv-x="526" unicode="&#295;" /><glyph d="M185 374Q220 473 328 473Q355 473 380 465Q405 457 424 439.5Q443 422 454 394.5Q465 367 465 328V0H346V286Q346 326 331 349Q316 372 278 372Q260 372 243 366.5Q226 361 213.5 348Q201 335 193 313Q185 291 185 258V0H66V668H185ZM168 846 299 706H184L153 738Q141 750 136 760Q133 764 132 769H128Q127 764 124 760Q119 750 107 738L76 706H-39L92 846Z" glyph-name="hcircumflex" horiz-adv-x="526" unicode="&#293;" /><glyph d="M80 527 135 678H266L166 527ZM239 527 311 678H448L332 527Z" glyph-name="hungarumlaut" horiz-adv-x="528" unicode="&#733;" /><glyph d="M80 649 135 785H266L166 649ZM239 649 311 785H448L332 649Z" glyph-name="hungarumlaut.cap" horiz-adv-x="528" unicode="&#58411;" /><glyph d="M64 308H306V208H64Z" glyph-name="hyphen" horiz-adv-x="370" unicode="-" /><glyph d="M51 605Q51 640 73 658.5Q95 677 125 677Q157 677 179.5 658.5Q202 640 202 605Q202 572 179.5 553.5Q157 535 125 535Q95 535 73 553.5Q51 572 51 605ZM185 462V0H66V462Z" glyph-name="i" horiz-adv-x="251" unicode="i" /><glyph d="M185 462V0H66V462ZM67 527 138 678H290L174 527Z" glyph-name="iacute" horiz-adv-x="251" unicode="&#237;" /><glyph d="M185 462V0H66V462ZM125 522Q88 522 60.5 533.5Q33 545 15 565.5Q-3 586 -11.5 614Q-20 642 -20 674H70Q71 644 81 626Q91 608 125 608Q160 608 169.5 626Q179 644 181 674H271Q271 642 262 614Q253 586 235 565.5Q217 545 189.5 533.5Q162 522 125 522Z" glyph-name="ibreve" horiz-adv-x="251" unicode="&#301;" /><glyph d="M185 462V0H66V462ZM162 680 294 525H181L149 562Q141 570 137 576.5Q133 583 131 588Q128 593 128 597H123Q123 593 120 588Q115 578 102 562L70 525H-43L89 680Z" glyph-name="icircumflex" horiz-adv-x="251" unicode="&#238;" /><glyph d="M185 462V0H66V462ZM-52 596Q-52 630 -31.5 648Q-11 666 17 666Q47 666 67.5 648Q88 630 88 596Q88 563 67.5 544.5Q47 526 17 526Q-11 526 -31.5 544.5Q-52 563 -52 596ZM159 595Q159 629 179 647Q199 665 228 665Q258 665 278 647Q298 629 298 595Q298 563 278 544.5Q258 526 228 526Q199 526 179 544.5Q159 563 159 595Z" glyph-name="idieresis" horiz-adv-x="251" unicode="&#239;" /><glyph d="M185 462V0H66V462ZM51 602Q51 636 73 655Q95 674 125 674Q158 674 180 655Q202 636 202 602Q202 569 180 550Q158 531 125 531Q95 531 73 550Q51 569 51 602Z" glyph-name="idotaccent" horiz-adv-x="251" /><glyph d="M185 462V0H66V462ZM77 527 -39 678H113L185 527Z" glyph-name="igrave" horiz-adv-x="251" unicode="&#236;" /><glyph d="M1 545V642H249V545ZM185 462V0H66V462Z" glyph-name="imacron" horiz-adv-x="251" unicode="&#299;" /><glyph d="M-13 -101Q-13 -55 11 -27Q35 1 66 17V462H185V0Q166 0 148 -5Q130 -10 116.5 -20Q103 -30 94.5 -45Q86 -60 86 -80Q86 -105 99.5 -119Q113 -133 137 -133Q175 -133 203 -99L232 -159Q191 -211 111 -211Q86 -211 63.5 -205Q41 -199 24 -185.5Q7 -172 -3 -151Q-13 -130 -13 -101ZM51 605Q51 640 73 658.5Q95 677 125 677Q157 677 179.5 658.5Q202 640 202 605Q202 572 179.5 553.5Q157 535 125 535Q95 535 73 553.5Q51 572 51 605Z" glyph-name="iogonek" horiz-adv-x="251" unicode="&#303;" /><glyph d="M185 462V0H66V462ZM201 524Q176 524 161 530Q146 536 127 547Q106 559 94 565.5Q82 572 69 572Q53 572 43.5 560.5Q34 549 38 523H-30Q-42 550 -41 576.5Q-40 603 -28.5 623.5Q-17 644 4 656.5Q25 669 53 669Q76 669 92 662.5Q108 656 125 646Q147 633 159 626.5Q171 620 184 620Q198 620 206.5 630Q215 640 211 667H282Q294 638 293.5 612Q293 586 282 566.5Q271 547 250.5 535.5Q230 524 201 524Z" glyph-name="itilde" horiz-adv-x="251" unicode="&#297;" /><glyph d="M185 462V1Q185 -56 167 -96.5Q149 -137 116.5 -161.5Q84 -186 38.5 -195.5Q-7 -205 -63 -202V-102Q-31 -106 -6.5 -102.5Q18 -99 34 -86Q50 -73 58 -48.5Q66 -24 66 14V462ZM50 605Q50 640 71.5 658.5Q93 677 124 677Q157 677 179 658.5Q201 640 201 605Q201 572 179 553.5Q157 535 124 535Q93 535 71.5 553.5Q50 572 50 605Z" glyph-name="j" horiz-adv-x="251" unicode="j" /><glyph d="M185 462V1Q185 -56 167 -96.5Q149 -137 116.5 -161.5Q84 -186 38 -195.5Q-8 -205 -64 -202V-102Q-31 -106 -7 -102.5Q17 -99 33.5 -86Q50 -73 58 -48.5Q66 -24 66 14V462ZM160 680 292 525H179L147 562Q139 570 135 576.5Q131 583 129 588Q126 593 126 597H121Q121 593 118 588Q113 578 100 562L68 525H-45L87 680Z" glyph-name="jcircumflex" horiz-adv-x="251" unicode="&#309;" /><glyph d="M494 0H353L213 196H185V0H66V668H185V288H210L339 462H479L310 247Z" glyph-name="k" horiz-adv-x="502" unicode="k" /><glyph d="M494 0H353L213 196H185V0H66V668H185V288H210L339 462H479L310 247ZM332 -141Q332 -201 296.5 -226.5Q261 -252 197 -252V-210Q228 -209 244.5 -201Q261 -193 261 -170Q233 -175 212.5 -161Q192 -147 192 -117Q192 -87 211 -71.5Q230 -56 258 -56Q290 -56 311 -79.5Q332 -103 332 -141Z" glyph-name="kcommaaccent" horiz-adv-x="502" unicode="&#311;" /><glyph d="M494 0H353L213 196H185V0H66V462H184V288H210L339 462H479L310 247Z" glyph-name="kgreenlandic" horiz-adv-x="502" unicode="&#312;" /><glyph d="M249 2Q229 -3 212.5 -6Q196 -9 179 -9Q155 -9 133 -3Q111 3 94.5 16.5Q78 30 68 51.5Q58 73 58 103V668H177V136Q177 114 189 104.5Q201 95 219 95Q237 95 254 102Z" glyph-name="l" horiz-adv-x="280" unicode="l" /><glyph d="M249 2Q229 -3 212.5 -6Q196 -9 179 -9Q155 -9 133 -3Q111 3 94.5 16.5Q78 30 68 51.5Q58 73 58 103V668H177V136Q177 114 189 104.5Q201 95 219 95Q237 95 254 102ZM63 724 127 860H279L172 724Z" glyph-name="lacute" horiz-adv-x="280" unicode="&#314;" /><glyph d="M321 509H235L250 686H376ZM249 2Q229 -3 212.5 -6Q196 -9 179 -9Q155 -9 133 -3Q111 3 94.5 16.5Q78 30 68 51.5Q58 73 58 103V668H177V136Q177 114 189 104.5Q201 95 219 95Q237 95 254 102Z" glyph-name="lcaron" horiz-adv-x="280" unicode="&#318;" /><glyph d="M249 2Q229 -3 212.5 -6Q196 -9 179 -9Q155 -9 133 -3Q111 3 94.5 16.5Q78 30 68 51.5Q58 73 58 103V668H177V136Q177 114 189 104.5Q201 95 219 95Q237 95 254 102ZM230 -141Q230 -201 194.5 -226.5Q159 -252 95 -252V-210Q126 -209 142.5 -201Q159 -193 159 -170Q131 -175 110.5 -161Q90 -147 90 -117Q90 -87 109 -71.5Q128 -56 156 -56Q188 -56 209 -79.5Q230 -103 230 -141Z" glyph-name="lcommaaccent" horiz-adv-x="280" unicode="&#316;" /><glyph d="M249 2Q229 -3 212.5 -6Q196 -9 179 -9Q155 -9 133 -3Q111 3 94.5 16.5Q78 30 68 51.5Q58 73 58 103V668H177V136Q177 114 189 104.5Q201 95 219 95Q237 95 254 102ZM223 324Q223 359 246 382.5Q269 406 302 406Q337 406 360 382.5Q383 359 383 324Q383 291 360 268.5Q337 246 302 246Q269 246 246 268.5Q223 291 223 324Z" glyph-name="ldot" horiz-adv-x="360" unicode="&#320;" /><glyph d="M151 247 343 88 295 32 45 247 299 459 346 404Z" glyph-name="less" horiz-adv-x="393" unicode="&lt;" /><glyph d="M173 297 357 171 309 111 50 296 313 478 357 420ZM45 20V87H379V20Z" glyph-name="lessequal" horiz-adv-x="424" unicode="&#8804;" /><glyph d="M8 339 70 370V668H189V429L269 469V379L189 339V136Q189 114 201 104.5Q213 95 231 95Q249 95 266 102L261 2Q241 -3 224.5 -6Q208 -9 191 -9Q167 -9 145 -3Q123 3 106.5 16.5Q90 30 80 51.5Q70 73 70 103V280L8 249Z" glyph-name="lslash" horiz-adv-x="295" unicode="&#322;" /><glyph d="M446 372Q464 425 504 449Q544 473 594 473Q622 473 646.5 465Q671 457 689 439.5Q707 422 717.5 395Q728 368 728 330V0H609V286Q609 326 594 349Q579 372 542 372Q525 372 509.5 366Q494 360 482.5 346.5Q471 333 464 311.5Q457 290 457 258V0H337V286Q337 326 322.5 349Q308 372 271 372Q254 372 238.5 366Q223 360 211 346.5Q199 333 192 311Q185 289 185 258V0H66V462H166L180 373Q199 426 235.5 449.5Q272 473 323 473Q369 473 403 450.5Q437 428 446 372Z" glyph-name="m" horiz-adv-x="789" unicode="m" /><glyph d="M80 545V642H363V545Z" glyph-name="macron" horiz-adv-x="443" unicode="&#175;" /><glyph d="M80 667V763H369V667Z" glyph-name="macron.cap" horiz-adv-x="449" unicode="&#58405;" /><glyph d="M45 214V282H453V214Z" glyph-name="minus" horiz-adv-x="498" unicode="&#8722;" /><glyph d="M176 249 49 377 96 425 224 298 358 431 407 384 272 249 410 111 362 64 224 202 93 70 45 118Z" glyph-name="multiply" horiz-adv-x="455" unicode="&#215;" /><glyph d="M180 373Q199 425 236.5 449Q274 473 328 473Q355 473 380 465Q405 457 424 439.5Q443 422 454 394.5Q465 367 465 328V0H346V286Q346 326 331 349Q316 372 278 372Q260 372 243 366.5Q226 361 213.5 348Q201 335 193 313Q185 291 185 258V0H66V462H166Z" glyph-name="n" horiz-adv-x="526" unicode="n" /><glyph d="M180 373Q199 425 236.5 449Q274 473 328 473Q355 473 380 465Q405 457 424 439.5Q443 422 454 394.5Q465 367 465 328V0H346V286Q346 326 331 349Q316 372 278 372Q260 372 243 366.5Q226 361 213.5 348Q201 335 193 313Q185 291 185 258V0H66V462H166ZM206 527 277 678H429L313 527Z" glyph-name="nacute" horiz-adv-x="526" unicode="&#324;" /><glyph d="M180 373Q199 425 236.5 449Q274 473 328 473Q355 473 380 465Q405 457 424 439.5Q443 422 454 394.5Q465 367 465 328V0H346V286Q346 326 331 349Q316 372 278 372Q260 372 243 366.5Q226 361 213.5 348Q201 335 193 313Q185 291 185 258V0H66V462H166ZM231 525 99 680H212L244 643Q257 627 262 617Q265 612 265 608H270Q270 612 273 617Q275 622 279 628.5Q283 635 291 643L323 680H436L304 525Z" glyph-name="ncaron" horiz-adv-x="526" unicode="&#328;" /><glyph d="M180 373Q199 425 236.5 449Q274 473 328 473Q355 473 380 465Q405 457 424 439.5Q443 422 454 394.5Q465 367 465 328V0H346V286Q346 326 331 349Q316 372 278 372Q260 372 243 366.5Q226 361 213.5 348Q201 335 193 313Q185 291 185 258V0H66V462H166ZM338 -141Q338 -201 302.5 -226.5Q267 -252 203 -252V-210Q234 -209 250.5 -201Q267 -193 267 -170Q239 -175 218.5 -161Q198 -147 198 -117Q198 -87 217 -71.5Q236 -56 264 -56Q296 -56 317 -79.5Q338 -103 338 -141Z" glyph-name="ncommaaccent" horiz-adv-x="526" unicode="&#326;" /><glyph d="M116 157Q130 122 156.5 102Q183 82 223 82Q266 82 295 101Q324 120 341.5 153.5Q359 187 366.5 232.5Q374 278 373 331H369Q358 271 320 242Q282 213 228 213Q185 213 151 227.5Q117 242 93 267Q69 292 56.5 326.5Q44 361 44 400Q44 444 58 481Q72 518 98.5 544.5Q125 571 164 586Q203 601 253 601Q361 601 421 530.5Q481 460 481 315Q481 147 412 67.5Q343 -12 220 -12Q151 -12 102.5 16Q54 44 31 96ZM345 407Q345 452 318 478.5Q291 505 252 505Q210 505 184 478.5Q158 452 158 407Q158 360 184 333.5Q210 307 252 307Q291 307 318 333.5Q345 360 345 407Z" glyph-name="nine" horiz-adv-x="528" unicode="9" /><glyph glyph-name="nonmarkingreturn" horiz-adv-x="221" unicode="" /><glyph d="M327 284 270 208H453V141H219L127 20L73 60L135 141H45V208H185L243 284H45V351H293L378 462L432 422L377 351H453V284Z" glyph-name="notequal" horiz-adv-x="498" unicode="&#8800;" /><glyph d="M180 373Q199 425 236.5 449Q274 473 328 473Q355 473 380 465Q405 457 424 439.5Q443 422 454 394.5Q465 367 465 328V0H346V286Q346 326 331 349Q316 372 278 372Q260 372 243 366.5Q226 361 213.5 348Q201 335 193 313Q185 291 185 258V0H66V462H166ZM342 524Q317 524 302 530Q287 536 268 547Q247 559 235 565.5Q223 572 210 572Q194 572 184.5 560.5Q175 549 179 523H111Q99 550 100 576.5Q101 603 112.5 623.5Q124 644 145 656.5Q166 669 194 669Q217 669 233 662.5Q249 656 266 646Q288 633 300 626.5Q312 620 325 620Q339 620 347.5 630Q356 640 352 667H423Q435 638 434.5 612Q434 586 423 566.5Q412 547 391.5 535.5Q371 524 342 524Z" glyph-name="ntilde" horiz-adv-x="526" unicode="&#241;" /><glyph d="M438 177 383 0H295L349 177H255L200 0H113L167 177H58V260H192L218 344H78V427H243L293 588H383L333 427H426L476 588H565L515 427H622V344H489L463 260H602V177ZM281 260H375L401 344H307Z" glyph-name="numbersign" horiz-adv-x="680" unicode="#" /><glyph d="M255 -12Q205 -12 165 4Q125 20 96 51.5Q67 83 51.5 128.5Q36 174 36 233Q36 351 96 412Q156 473 255 473Q354 473 414 412Q474 351 474 233Q474 174 458.5 128.5Q443 83 414 51.5Q385 20 344.5 4Q304 -12 255 -12ZM255 377Q204 377 179 342Q154 307 154 232Q154 81 255 81Q357 81 357 232Q357 307 331.5 342Q306 377 255 377Z" glyph-name="o" horiz-adv-x="510" unicode="o" /><glyph d="M255 -12Q205 -12 165 4Q125 20 96 51.5Q67 83 51.5 128.5Q36 174 36 233Q36 351 96 412Q156 473 255 473Q354 473 414 412Q474 351 474 233Q474 174 458.5 128.5Q443 83 414 51.5Q385 20 344.5 4Q304 -12 255 -12ZM255 377Q204 377 179 342Q154 307 154 232Q154 81 255 81Q357 81 357 232Q357 307 331.5 342Q306 377 255 377ZM193 527 264 678H416L300 527Z" glyph-name="oacute" horiz-adv-x="510" unicode="&#243;" /><glyph d="M255 -12Q205 -12 165 4Q125 20 96 51.5Q67 83 51.5 128.5Q36 174 36 233Q36 351 96 412Q156 473 255 473Q354 473 414 412Q474 351 474 233Q474 174 458.5 128.5Q443 83 414 51.5Q385 20 344.5 4Q304 -12 255 -12ZM255 377Q204 377 179 342Q154 307 154 232Q154 81 255 81Q357 81 357 232Q357 307 331.5 342Q306 377 255 377ZM255 522Q218 522 190.5 533.5Q163 545 145 565.5Q127 586 118.5 614Q110 642 110 674H200Q201 644 211 626Q221 608 255 608Q290 608 299.5 626Q309 644 311 674H401Q401 642 392 614Q383 586 365 565.5Q347 545 319.5 533.5Q292 522 255 522Z" glyph-name="obreve" horiz-adv-x="510" unicode="&#335;" /><glyph d="M255 -12Q205 -12 165 4Q125 20 96 51.5Q67 83 51.5 128.5Q36 174 36 233Q36 351 96 412Q156 473 255 473Q354 473 414 412Q474 351 474 233Q474 174 458.5 128.5Q443 83 414 51.5Q385 20 344.5 4Q304 -12 255 -12ZM255 377Q204 377 179 342Q154 307 154 232Q154 81 255 81Q357 81 357 232Q357 307 331.5 342Q306 377 255 377ZM292 680 424 525H311L279 562Q271 570 267 576.5Q263 583 261 588Q258 593 258 597H253Q253 593 250 588Q245 578 232 562L200 525H87L219 680Z" glyph-name="ocircumflex" horiz-adv-x="510" unicode="&#244;" /><glyph d="M255 -12Q205 -12 165 4Q125 20 96 51.5Q67 83 51.5 128.5Q36 174 36 233Q36 351 96 412Q156 473 255 473Q354 473 414 412Q474 351 474 233Q474 174 458.5 128.5Q443 83 414 51.5Q385 20 344.5 4Q304 -12 255 -12ZM255 377Q204 377 179 342Q154 307 154 232Q154 81 255 81Q357 81 357 232Q357 307 331.5 342Q306 377 255 377ZM78 596Q78 630 98.5 648Q119 666 147 666Q177 666 197.5 648Q218 630 218 596Q218 563 197.5 544.5Q177 526 147 526Q119 526 98.5 544.5Q78 563 78 596ZM289 595Q289 629 309 647Q329 665 358 665Q388 665 408 647Q428 629 428 595Q428 563 408 544.5Q388 526 358 526Q329 526 309 544.5Q289 563 289 595Z" glyph-name="odieresis" horiz-adv-x="510" unicode="&#246;" /><glyph d="M579 80Q610 80 632.5 94.5Q655 109 666 147L769 114Q760 79 741.5 55Q723 31 697 16Q671 1 640 -5.5Q609 -12 575 -12Q523 -12 480.5 7.5Q438 27 414 67Q392 27 352 7.5Q312 -12 255 -12Q205 -12 165 4Q125 20 96 51.5Q67 83 51.5 128.5Q36 174 36 233Q36 351 96 412Q156 473 255 473Q373 473 416 390Q439 430 479.5 451.5Q520 473 578 473Q626 473 661.5 458Q697 443 721 416Q745 389 757 352Q769 315 769 271Q769 254 767 238.5Q765 223 762 209H473Q475 151 501.5 115.5Q528 80 579 80ZM255 377Q204 377 179 342Q154 307 154 232Q154 81 255 81Q357 81 357 232Q357 307 331.5 342Q306 377 255 377ZM654 280Q655 285 655 288.5Q655 292 655 297Q655 334 634 358.5Q613 383 573 383Q531 383 506 355.5Q481 328 476 280Z" glyph-name="oe" horiz-adv-x="806" unicode="&#339;" /><glyph d="M255 -12Q205 -12 165 4Q125 20 96 51.5Q67 83 51.5 128.5Q36 174 36 233Q36 351 96 412Q156 473 255 473Q354 473 414 412Q474 351 474 233Q474 174 458.5 128.5Q443 83 414 51.5Q385 20 344.5 4Q304 -12 255 -12ZM255 377Q204 377 179 342Q154 307 154 232Q154 81 255 81Q357 81 357 232Q357 307 331.5 342Q306 377 255 377ZM210 527 94 678H246L318 527Z" glyph-name="ograve" horiz-adv-x="510" unicode="&#242;" /><glyph d="M255 -12Q205 -12 165 4Q125 20 96 51.5Q67 83 51.5 128.5Q36 174 36 233Q36 351 96 412Q156 473 255 473Q354 473 414 412Q474 351 474 233Q474 174 458.5 128.5Q443 83 414 51.5Q385 20 344.5 4Q304 -12 255 -12ZM255 377Q204 377 179 342Q154 307 154 232Q154 81 255 81Q357 81 357 232Q357 307 331.5 342Q306 377 255 377ZM127 527 182 678H313L213 527ZM286 527 358 678H495L379 527Z" glyph-name="ohungarumlaut" horiz-adv-x="510" unicode="&#337;" /><glyph d="M255 -12Q205 -12 165 4Q125 20 96 51.5Q67 83 51.5 128.5Q36 174 36 233Q36 351 96 412Q156 473 255 473Q354 473 414 412Q474 351 474 233Q474 174 458.5 128.5Q443 83 414 51.5Q385 20 344.5 4Q304 -12 255 -12ZM255 377Q204 377 179 342Q154 307 154 232Q154 81 255 81Q357 81 357 232Q357 307 331.5 342Q306 377 255 377ZM114 545V642H397V545Z" glyph-name="omacron" horiz-adv-x="510" unicode="&#333;" /><glyph d="M139 0V464L15 446V554L260 589V0Z" glyph-name="one" horiz-adv-x="354" unicode="1" /><glyph d="M35 -203V-136H124V67L26 58V129L213 150V-136H293V-203Z" glyph-name="one.inf" horiz-adv-x="309" unicode="&#58738;" /><glyph d="M49 236V303H138V506L40 497V568L227 589V303H307V236ZM819 0H545V60Q588 90 619.5 114Q651 138 671.5 158.5Q692 179 702 198Q712 217 712 238Q712 283 668 283Q645 283 630 267Q615 251 615 219L540 250Q541 271 549.5 291Q558 311 575.5 326.5Q593 342 618.5 351.5Q644 361 678 361Q732 361 769 333.5Q806 306 806 249Q806 214 791 186.5Q776 159 754 137.5Q732 116 706 100Q680 84 659 74V70H819ZM549 589H624L317 0H244Z" glyph-name="onehalf" horiz-adv-x="868" unicode="&#189;" /><glyph d="M49 236V303H138V506L40 497V568L227 589V303H307V236ZM706 75H530V138L707 353H796V141H848V75H796V0H706ZM708 210Q708 224 708.5 236.5Q709 249 710 259Q711 270 712 281H708Q705 274 701 265Q697 257 691 248Q685 239 677 228L642 184Q633 173 625 164.5Q617 156 610 150Q602 143 595 138V134Q601 135 609 136Q616 137 626.5 138Q637 139 651 139H708ZM549 589H624L317 0H244Z" glyph-name="onequarter" horiz-adv-x="868" unicode="&#188;" /><glyph d="M35 236V303H124V506L26 497V568L213 589V303H293V236Z" glyph-name="onesuperior" horiz-adv-x="309" unicode="&#185;" /><glyph d="M210 420Q164 420 146 407Q128 394 128 372Q128 357 136.5 348Q145 339 162 339Q179 339 194.5 349Q210 359 210 381ZM306 374Q306 362 311 357.5Q316 353 324 353Q339 353 348 359V294Q340 289 323.5 285.5Q307 282 291 282Q260 282 242 291.5Q224 301 214 326Q203 301 180.5 290Q158 279 125 279Q84 279 59.5 300.5Q35 322 35 361Q35 411 76.5 437.5Q118 464 210 463V491Q210 514 199.5 524Q189 534 173 534Q156 534 146 522Q136 510 134 493L45 507Q49 556 87.5 578.5Q126 601 181 601Q206 601 228.5 596Q251 591 268 579Q285 567 295.5 548Q306 529 306 501Z" glyph-name="ordfeminine" horiz-adv-x="381" unicode="&#170;" /><glyph d="M196 279Q127 279 84.5 321Q42 363 42 441Q42 519 84.5 560Q127 601 196 601Q266 601 308.5 560Q351 519 351 441Q351 363 308.5 321Q266 279 196 279ZM196 535Q138 535 138 441Q138 345 196 345Q254 345 254 441Q254 535 196 535Z" glyph-name="ordmasculine" horiz-adv-x="393" unicode="&#186;" /><glyph d="M28 26 76 77Q36 139 36 233Q36 351 96 412Q156 473 255 473Q342 473 399 425L443 473L490 433L439 378Q456 350 465 314Q474 278 474 233Q474 174 458.5 128.5Q443 83 414 51.5Q385 20 344.5 4Q304 -12 255 -12Q172 -12 116 32L72 -15ZM255 377Q204 377 179 342Q154 307 154 232Q154 213 155 197Q156 181 159 167L326 347Q300 377 255 377ZM357 232Q357 247 356 260.5Q355 274 353 286L187 108Q211 81 255 81Q357 81 357 232Z" glyph-name="oslash" horiz-adv-x="510" unicode="&#248;" /><glyph d="M28 26 76 77Q36 139 36 233Q36 351 96 412Q156 473 255 473Q342 473 399 425L443 473L490 433L439 378Q456 350 465 314Q474 278 474 233Q474 174 458.5 128.5Q443 83 414 51.5Q385 20 344.5 4Q304 -12 255 -12Q172 -12 116 32L72 -15ZM255 377Q204 377 179 342Q154 307 154 232Q154 213 155 197Q156 181 159 167L326 347Q300 377 255 377ZM357 232Q357 247 356 260.5Q355 274 353 286L187 108Q211 81 255 81Q357 81 357 232ZM197 527 268 678H420L304 527Z" glyph-name="oslashacute" horiz-adv-x="510" unicode="&#511;" /><glyph d="M255 -12Q205 -12 165 4Q125 20 96 51.5Q67 83 51.5 128.5Q36 174 36 233Q36 351 96 412Q156 473 255 473Q354 473 414 412Q474 351 474 233Q474 174 458.5 128.5Q443 83 414 51.5Q385 20 344.5 4Q304 -12 255 -12ZM255 377Q204 377 179 342Q154 307 154 232Q154 81 255 81Q357 81 357 232Q357 307 331.5 342Q306 377 255 377ZM330 524Q305 524 290 530Q275 536 256 547Q235 559 223 565.5Q211 572 198 572Q182 572 172.5 560.5Q163 549 167 523H99Q87 550 88 576.5Q89 603 100.5 623.5Q112 644 133 656.5Q154 669 182 669Q205 669 221 662.5Q237 656 254 646Q276 633 288 626.5Q300 620 313 620Q327 620 335.5 630Q344 640 340 667H411Q423 638 422.5 612Q422 586 411 566.5Q400 547 379.5 535.5Q359 524 330 524Z" glyph-name="otilde" horiz-adv-x="510" unicode="&#245;" /><glyph d="M185 186Q185 155 194 133.5Q203 112 216.5 99Q230 86 247 80.5Q264 75 281 75Q304 75 324.5 84.5Q345 94 360 113.5Q375 133 384 162Q393 191 393 231Q393 307 365.5 342Q338 377 290 377Q269 377 250 369Q231 361 216.5 346Q202 331 193.5 308.5Q185 286 185 257ZM185 -203H66V462H167L182 373Q192 401 208.5 420Q225 439 245 451Q265 463 288 468Q311 473 334 473Q419 473 466 413.5Q513 354 513 242Q513 186 500 139.5Q487 93 461.5 59.5Q436 26 399 7Q362 -12 315 -12Q261 -12 228.5 10Q196 32 185 61Z" glyph-name="p" horiz-adv-x="549" unicode="p" /><glyph d="M430 -14Q430 -55 418 -83.5Q406 -112 384.5 -129.5Q363 -147 334.5 -155Q306 -163 273 -163Q242 -163 217.5 -157.5Q193 -152 164 -136L188 -31Q207 -48 227 -54.5Q247 -61 265 -61Q288 -61 301 -48.5Q314 -36 314 -2V174H265Q213 174 170.5 186Q128 198 98 223Q68 248 52 286Q36 324 36 375Q36 488 104.5 538.5Q173 589 295 589H509V492H430Z" glyph-name="paragraph" horiz-adv-x="548" unicode="&#182;" /><glyph d="M174 233Q174 162 187 103Q200 44 223 -7.5Q246 -59 277.5 -106.5Q309 -154 346 -202H218Q188 -164 159 -120Q130 -76 107.5 -23.5Q85 29 71.5 92.5Q58 156 58 233Q58 310 71.5 373.5Q85 437 107.5 489.5Q130 542 159 586Q188 630 218 668H346Q309 620 277.5 572.5Q246 525 223 473.5Q200 422 187 363Q174 304 174 233Z" glyph-name="parenleft" horiz-adv-x="354" unicode="(" /><glyph d="M179 233Q179 304 166 363Q153 422 130 473.5Q107 525 76 572.5Q45 620 8 668H136Q166 630 194.5 586Q223 542 245.5 489.5Q268 437 282 373.5Q296 310 296 233Q296 156 282 92.5Q268 29 245.5 -23.5Q223 -76 194.5 -120Q166 -164 136 -202H8Q45 -154 76 -106.5Q107 -59 130 -7.5Q153 44 166 103Q179 162 179 233Z" glyph-name="parenright" horiz-adv-x="354" unicode=")" /><glyph d="M178 229Q140 229 112 243Q84 257 65.5 281.5Q47 306 38 339.5Q29 373 29 413Q29 452 39 486Q49 520 68 544.5Q87 569 114.5 583Q142 597 178 597Q214 597 241.5 583Q269 569 288 544.5Q307 520 317 486Q327 452 327 413Q327 373 318 339.5Q309 306 290.5 281.5Q272 257 244 243Q216 229 178 229ZM178 519Q149 519 133.5 490Q118 461 118 411Q118 364 133.5 333.5Q149 303 178 303Q207 303 222.5 333.5Q238 364 238 411Q238 461 222.5 490Q207 519 178 519ZM552 589H627L320 0H247ZM699 -7Q661 -7 633 7Q605 21 586.5 45.5Q568 70 559 103.5Q550 137 550 177Q550 216 560 250Q570 284 589 308.5Q608 333 635.5 347Q663 361 699 361Q735 361 762.5 347Q790 333 809 308.5Q828 284 838 250Q848 216 848 177Q848 137 839 103.5Q830 70 811.5 45.5Q793 21 765 7Q737 -7 699 -7ZM699 283Q670 283 654.5 254Q639 225 639 175Q639 128 654.5 97.5Q670 67 699 67Q728 67 743.5 97.5Q759 128 759 175Q759 225 743.5 254Q728 283 699 283Z" glyph-name="percent" horiz-adv-x="876" unicode="%" /><glyph d="M65 73Q65 108 88 131.5Q111 155 144 155Q179 155 202 131.5Q225 108 225 73Q225 40 202 17.5Q179 -5 144 -5Q111 -5 88 17.5Q65 40 65 73Z" glyph-name="period" horiz-adv-x="290" unicode="." /><glyph d="M65 264Q65 299 88 322.5Q111 346 144 346Q179 346 202 322.5Q225 299 225 264Q225 231 202 208.5Q179 186 144 186Q111 186 88 208.5Q65 231 65 264Z" glyph-name="periodcentered" horiz-adv-x="290" unicode="&#8901;" /><glyph d="M65 304Q65 339 88 362.5Q111 386 144 386Q179 386 202 362.5Q225 339 225 304Q225 271 202 248.5Q179 226 144 226Q111 226 88 248.5Q65 271 65 304Z" glyph-name="periodcentered.cap" horiz-adv-x="290" unicode="&#58497;" /><glyph d="M213 282V445H281V282H453V214H281V37H213V214H45V282Z" glyph-name="plus" horiz-adv-x="498" unicode="+" /><glyph d="M213 353V480H281V353H453V285H281V144H213V285H45V353ZM45 30V98H453V30Z" glyph-name="plusminus" horiz-adv-x="498" unicode="&#177;" /><glyph d="M365 281Q365 308 356.5 327.5Q348 347 334 359.5Q320 372 302 378Q284 384 266 384Q244 384 224 376Q204 368 189 349Q174 330 165 300Q156 270 156 227Q156 155 185 117.5Q214 80 265 80Q283 80 300.5 87Q318 94 332.5 107.5Q347 121 356 141.5Q365 162 365 189ZM402 462H483V-203H365V80Q357 54 343 36Q329 18 310.5 7.5Q292 -3 268.5 -7.5Q245 -12 220 -12Q182 -12 148.5 3Q115 18 90 47.5Q65 77 50.5 120.5Q36 164 36 222Q36 340 89 406.5Q142 473 242 473Q292 473 324.5 453.5Q357 434 371 402Z" glyph-name="q" horiz-adv-x="549" unicode="q" /><glyph d="M0 445Q16 519 66.5 560Q117 601 210 601Q255 601 292.5 588Q330 575 357 551Q384 527 398.5 493.5Q413 460 413 420Q413 372 397 339.5Q381 307 355.5 287Q330 267 298 258Q266 249 235 248V180H131V314H175Q229 314 258 335.5Q287 357 287 411Q287 455 263.5 476.5Q240 498 202 498Q121 498 110 406ZM107 67Q107 99 129 119Q151 139 183 139Q216 139 238 119Q260 99 260 67Q260 35 238 15Q216 -5 183 -5Q151 -5 129 15Q107 35 107 67Z" glyph-name="question" horiz-adv-x="424" unicode="?" /><glyph d="M424 17Q408 -57 357.5 -98Q307 -139 214 -139Q169 -139 131.5 -126Q94 -113 67 -89Q40 -65 25.5 -31.5Q11 2 11 42Q11 90 27 122.5Q43 155 68.5 175Q94 195 126 204Q158 213 189 214V282H293V148H249Q195 148 166 126.5Q137 105 137 51Q137 7 160.5 -14.5Q184 -36 222 -36Q303 -36 314 56ZM317 395Q317 363 295 343Q273 323 241 323Q208 323 186 343Q164 363 164 395Q164 427 186 447Q208 467 241 467Q273 467 295 447Q317 427 317 395Z" glyph-name="questiondown" horiz-adv-x="424" unicode="&#191;" /><glyph d="M63 668H183L135 412H63ZM230 668H350L302 412H230Z" glyph-name="quotedbl" horiz-adv-x="393" unicode="&quot;" /><glyph d="M209 39Q209 -5 196 -35.5Q183 -66 160 -85.5Q137 -105 105 -114.5Q73 -124 34 -125V-74Q76 -69 100.5 -51.5Q125 -34 125 1Q91 -5 66 13Q41 31 41 68Q41 104 63.5 122.5Q86 141 120 141Q158 141 183.5 113.5Q209 86 209 39ZM428 39Q428 -5 415 -35.5Q402 -66 379 -85.5Q356 -105 324 -114.5Q292 -124 253 -125V-74Q295 -69 319.5 -51.5Q344 -34 344 1Q310 -5 285 13Q260 31 260 68Q260 104 282.5 122.5Q305 141 339 141Q377 141 402.5 113.5Q428 86 428 39Z" glyph-name="quotedblbase" horiz-adv-x="462" unicode="&#8222;" /><glyph d="M34 516Q34 559 47 590Q60 621 83 640.5Q106 660 138 669.5Q170 679 209 680V629Q167 624 142.5 606.5Q118 589 118 554Q152 560 177 542Q202 524 202 487Q202 451 179.5 432.5Q157 414 123 414Q85 414 59.5 441.5Q34 469 34 516ZM253 516Q253 559 266 590Q279 621 302 640.5Q325 660 357 669.5Q389 679 428 680V629Q386 624 361.5 606.5Q337 589 337 554Q371 560 396 542Q421 524 421 487Q421 451 398.5 432.5Q376 414 342 414Q304 414 278.5 441.5Q253 469 253 516Z" glyph-name="quotedblleft" horiz-adv-x="462" unicode="&#8220;" /><glyph d="M209 578Q209 534 196 503.5Q183 473 160 453.5Q137 434 105 424.5Q73 415 34 414V465Q76 470 100.5 487.5Q125 505 125 540Q91 534 66 552Q41 570 41 607Q41 643 63.5 661.5Q86 680 120 680Q158 680 183.5 652.5Q209 625 209 578ZM428 578Q428 534 415 503.5Q402 473 379 453.5Q356 434 324 424.5Q292 415 253 414V465Q295 470 319.5 487.5Q344 505 344 540Q310 534 285 552Q260 570 260 607Q260 643 282.5 661.5Q305 680 339 680Q377 680 402.5 652.5Q428 625 428 578Z" glyph-name="quotedblright" horiz-adv-x="462" unicode="&#8221;" /><glyph d="M34 516Q34 559 47 590Q60 621 83 640.5Q106 660 138 669.5Q170 679 209 680V629Q167 624 142.5 606.5Q118 589 118 554Q152 560 177 542Q202 524 202 487Q202 451 179.5 432.5Q157 414 123 414Q85 414 59.5 441.5Q34 469 34 516Z" glyph-name="quoteleft" horiz-adv-x="243" unicode="&#8216;" /><glyph d="M209 578Q209 534 196 503.5Q183 473 160 453.5Q137 434 105 424.5Q73 415 34 414V465Q75 470 99.5 487.5Q124 505 124 540Q91 535 65.5 552.5Q40 570 40 607Q40 643 63 661.5Q86 680 119 680Q157 680 183 652.5Q209 625 209 578Z" glyph-name="quoteright" horiz-adv-x="243" unicode="&#8217;" /><glyph d="M209 39Q209 -5 196 -35.5Q183 -66 160 -85.5Q137 -105 105 -114.5Q73 -124 34 -125V-74Q75 -69 99.5 -51.5Q124 -34 124 1Q91 -4 65.5 13.5Q40 31 40 68Q40 104 63 122.5Q86 141 119 141Q157 141 183 113.5Q209 86 209 39Z" glyph-name="quotesinglbase" horiz-adv-x="243" unicode="&#8218;" /><glyph d="M63 668H183L135 412H63Z" glyph-name="quotesingle" horiz-adv-x="226" unicode="&apos;" /><glyph d="M355 340Q344 343 332.5 344.5Q321 346 307 346Q286 346 264 339Q242 332 224.5 317Q207 302 196 278Q185 254 185 219V0H66V462H169L183 336Q190 366 203.5 392Q217 418 239 436.5Q261 455 292.5 464.5Q324 474 367 472Z" glyph-name="r" horiz-adv-x="381" unicode="r" /><glyph d="M355 340Q344 343 332.5 344.5Q321 346 307 346Q286 346 264 339Q242 332 224.5 317Q207 302 196 278Q185 254 185 219V0H66V462H169L183 336Q190 366 203.5 392Q217 418 239 436.5Q261 455 292.5 464.5Q324 474 367 472ZM154 527 225 678H377L261 527Z" glyph-name="racute" horiz-adv-x="381" unicode="&#341;" /><glyph d="M355 340Q344 343 332.5 344.5Q321 346 307 346Q286 346 264 339Q242 332 224.5 317Q207 302 196 278Q185 254 185 219V0H66V462H169L183 336Q190 366 203.5 392Q217 418 239 436.5Q261 455 292.5 464.5Q324 474 367 472ZM172 525 40 680H153L185 643Q198 627 203 617Q206 612 206 608H211Q211 612 214 617Q216 622 220 628.5Q224 635 232 643L264 680H377L245 525Z" glyph-name="rcaron" horiz-adv-x="381" unicode="&#345;" /><glyph d="M355 340Q344 343 332.5 344.5Q321 346 307 346Q286 346 264 339Q242 332 224.5 317Q207 302 196 278Q185 254 185 219V0H66V462H169L183 336Q190 366 203.5 392Q217 418 239 436.5Q261 455 292.5 464.5Q324 474 367 472ZM194 -141Q194 -201 158.5 -226.5Q123 -252 59 -252V-210Q90 -209 106.5 -201Q123 -193 123 -170Q95 -175 74.5 -161Q54 -147 54 -117Q54 -87 73 -71.5Q92 -56 120 -56Q152 -56 173 -79.5Q194 -103 194 -141Z" glyph-name="rcommaaccent" horiz-adv-x="381" unicode="&#343;" /><glyph d="M417 121Q409 129 404.5 138Q400 147 396 161L386 199Q380 222 366 230Q352 238 329 238H311V121H215V482H366Q434 482 470 453Q506 424 506 366Q506 318 477 295.5Q448 273 409 269Q439 264 456.5 254Q474 244 483 218L501 164Q508 139 525 121ZM311 311H347Q382 311 397 321.5Q412 332 412 355Q412 378 397 390.5Q382 403 355 403H311ZM45 294Q45 361 69 417Q93 473 134.5 514Q176 555 232 578Q288 601 351 601Q414 601 470 578Q526 555 568 514Q610 473 634 417Q658 361 658 294Q658 227 634 171Q610 115 568 74.5Q526 34 470 11Q414 -12 351 -12Q288 -12 232 11Q176 34 134.5 74.5Q93 115 69 171Q45 227 45 294ZM76 294Q76 233 98 182Q120 131 157.5 94.5Q195 58 245.5 37.5Q296 17 353 17Q410 17 460 37.5Q510 58 547.5 94.5Q585 131 606.5 182Q628 233 628 294Q628 355 606.5 406Q585 457 547.5 494Q510 531 460 551.5Q410 572 353 572Q296 572 245.5 551.5Q195 531 157.5 494Q120 457 98 406Q76 355 76 294Z" glyph-name="registered" horiz-adv-x="703" unicode="&#174;" /><glyph d="M191 511Q137 511 108.5 542.5Q80 574 80 619Q80 640 88 659Q96 678 110.5 692Q125 706 145.5 714.5Q166 723 191 723Q216 723 236.5 714.5Q257 706 271.5 692Q286 678 294 659Q302 640 302 619Q302 574 273.5 542.5Q245 511 191 511ZM191 669Q167 669 153.5 654.5Q140 640 140 617Q140 597 153 582.5Q166 568 191 568Q216 568 229 582.5Q242 597 242 617Q242 640 228.5 654.5Q215 669 191 669Z" glyph-name="ring" horiz-adv-x="382" unicode="&#730;" /><glyph d="M191 632Q137 632 108.5 663.5Q80 695 80 740Q80 761 88 780Q96 799 110.5 813Q125 827 145.5 835.5Q166 844 191 844Q216 844 236.5 835.5Q257 827 271.5 813Q286 799 294 780Q302 761 302 740Q302 695 273.5 663.5Q245 632 191 632ZM191 790Q167 790 153.5 775.5Q140 761 140 738Q140 718 153 703.5Q166 689 191 689Q216 689 229 703.5Q242 718 242 738Q242 761 228.5 775.5Q215 790 191 790Z" glyph-name="ring.cap" horiz-adv-x="382" unicode="&#58410;" /><glyph d="M121 143Q128 105 153.5 88.5Q179 72 214 72Q246 72 266.5 83.5Q287 95 287 119Q287 142 272.5 154.5Q258 167 224 176L156 192Q94 207 66 240.5Q38 274 38 327Q38 369 53.5 397Q69 425 95 442Q121 459 154 466Q187 473 222 473Q301 473 347 443Q393 413 399 345L286 329Q283 359 265.5 371.5Q248 384 216 384Q187 384 170.5 372Q154 360 154 338Q154 318 165.5 306Q177 294 205 289L270 274Q338 259 371 224Q404 189 404 129Q404 91 389.5 64Q375 37 349.5 20Q324 3 289 -4.5Q254 -12 213 -12Q129 -12 81 14.5Q33 41 21 106Z" glyph-name="s" horiz-adv-x="436" unicode="s" /><glyph d="M121 143Q128 105 153.5 88.5Q179 72 214 72Q246 72 266.5 83.5Q287 95 287 119Q287 142 272.5 154.5Q258 167 224 176L156 192Q94 207 66 240.5Q38 274 38 327Q38 369 53.5 397Q69 425 95 442Q121 459 154 466Q187 473 222 473Q301 473 347 443Q393 413 399 345L286 329Q283 359 265.5 371.5Q248 384 216 384Q187 384 170.5 372Q154 360 154 338Q154 318 165.5 306Q177 294 205 289L270 274Q338 259 371 224Q404 189 404 129Q404 91 389.5 64Q375 37 349.5 20Q324 3 289 -4.5Q254 -12 213 -12Q129 -12 81 14.5Q33 41 21 106ZM167 527 238 678H390L274 527Z" glyph-name="sacute" horiz-adv-x="436" unicode="&#347;" /><glyph d="M121 143Q128 105 153.5 88.5Q179 72 214 72Q246 72 266.5 83.5Q287 95 287 119Q287 142 272.5 154.5Q258 167 224 176L156 192Q94 207 66 240.5Q38 274 38 327Q38 369 53.5 397Q69 425 95 442Q121 459 154 466Q187 473 222 473Q301 473 347 443Q393 413 399 345L286 329Q283 359 265.5 371.5Q248 384 216 384Q187 384 170.5 372Q154 360 154 338Q154 318 165.5 306Q177 294 205 289L270 274Q338 259 371 224Q404 189 404 129Q404 91 389.5 64Q375 37 349.5 20Q324 3 289 -4.5Q254 -12 213 -12Q129 -12 81 14.5Q33 41 21 106ZM184 525 52 680H165L197 643Q210 627 215 617Q218 612 218 608H223Q223 612 226 617Q228 622 232 628.5Q236 635 244 643L276 680H389L257 525Z" glyph-name="scaron" horiz-adv-x="436" unicode="&#353;" /><glyph d="M322 -120Q322 -167 290 -189Q258 -211 211 -211Q177 -211 151 -201Q125 -191 111 -174L135 -115Q164 -150 200 -150Q232 -150 232 -121Q232 -85 176 -81L182 -11Q113 -6 72.5 20.5Q32 47 21 106L121 143Q128 105 153.5 88.5Q179 72 214 72Q246 72 266.5 83.5Q287 95 287 119Q287 142 272.5 154.5Q258 167 224 176L156 192Q94 207 66 240.5Q38 274 38 327Q38 369 53.5 397Q69 425 95 442Q121 459 154 466Q187 473 222 473Q301 473 347 443Q393 413 399 345L286 329Q283 359 265.5 371.5Q248 384 216 384Q187 384 170.5 372Q154 360 154 338Q154 318 165.5 306Q177 294 205 289L270 274Q338 259 371 224Q404 189 404 129Q404 93 391.5 67.5Q379 42 356.5 25Q334 8 303 -0.5Q272 -9 236 -11L234 -38Q322 -44 322 -120Z" glyph-name="scedilla" horiz-adv-x="436" unicode="&#351;" /><glyph d="M121 143Q128 105 153.5 88.5Q179 72 214 72Q246 72 266.5 83.5Q287 95 287 119Q287 142 272.5 154.5Q258 167 224 176L156 192Q94 207 66 240.5Q38 274 38 327Q38 369 53.5 397Q69 425 95 442Q121 459 154 466Q187 473 222 473Q301 473 347 443Q393 413 399 345L286 329Q283 359 265.5 371.5Q248 384 216 384Q187 384 170.5 372Q154 360 154 338Q154 318 165.5 306Q177 294 205 289L270 274Q338 259 371 224Q404 189 404 129Q404 91 389.5 64Q375 37 349.5 20Q324 3 289 -4.5Q254 -12 213 -12Q129 -12 81 14.5Q33 41 21 106ZM266 680 398 525H285L253 562Q245 570 241 576.5Q237 583 235 588Q232 593 232 597H227Q227 593 224 588Q219 578 206 562L174 525H61L193 680Z" glyph-name="scircumflex" horiz-adv-x="436" unicode="&#349;" /><glyph d="M121 143Q128 105 153.5 88.5Q179 72 214 72Q246 72 266.5 83.5Q287 95 287 119Q287 142 272.5 154.5Q258 167 224 176L156 192Q94 207 66 240.5Q38 274 38 327Q38 369 53.5 397Q69 425 95 442Q121 459 154 466Q187 473 222 473Q301 473 347 443Q393 413 399 345L286 329Q283 359 265.5 371.5Q248 384 216 384Q187 384 170.5 372Q154 360 154 338Q154 318 165.5 306Q177 294 205 289L270 274Q338 259 371 224Q404 189 404 129Q404 91 389.5 64Q375 37 349.5 20Q324 3 289 -4.5Q254 -12 213 -12Q129 -12 81 14.5Q33 41 21 106ZM292 -141Q292 -201 256.5 -226.5Q221 -252 157 -252V-210Q188 -209 204.5 -201Q221 -193 221 -170Q193 -175 172.5 -161Q152 -147 152 -117Q152 -87 171 -71.5Q190 -56 218 -56Q250 -56 271 -79.5Q292 -103 292 -141Z" glyph-name="scommaaccent" horiz-adv-x="436" unicode="&#537;" /><glyph d="M141 60Q149 23 175 6Q201 -11 235 -11Q264 -11 282.5 0.5Q301 12 301 35Q301 54 286.5 67Q272 80 237 90L165 111Q108 128 82.5 155.5Q57 183 57 230Q57 275 80.5 299Q104 323 137 332Q115 341 100 355Q85 369 75.5 386Q66 403 62 420.5Q58 438 58 455Q58 497 73.5 525Q89 553 114.5 570Q140 587 172.5 594Q205 601 238 601Q320 601 367 570Q414 539 418 473L305 457Q303 488 284 500Q265 512 236 512Q207 512 192 499.5Q177 487 177 466Q177 449 188 436.5Q199 424 231 414L299 395Q357 378 390 349Q423 320 423 265Q423 222 400 195.5Q377 169 341 163Q379 146 400 114Q421 82 421 42Q421 4 406.5 -22.5Q392 -49 366.5 -66Q341 -83 306 -90.5Q271 -98 231 -98Q148 -98 99 -68Q50 -38 40 25ZM303 244Q303 270 278 283.5Q253 297 211 309Q194 302 184 288.5Q174 275 174 258Q174 231 195.5 218.5Q217 206 265 192Q280 197 291.5 210.5Q303 224 303 244Z" glyph-name="section" horiz-adv-x="463" unicode="&#167;" /><glyph d="M226 45Q226 1 213 -29.5Q200 -60 177 -79.5Q154 -99 122 -108.5Q90 -118 51 -119V-68Q92 -63 116.5 -45.5Q141 -28 141 7Q108 2 82.5 19.5Q57 37 57 74Q57 110 80 128.5Q103 147 136 147Q174 147 200 119.5Q226 92 226 45ZM57 384Q57 419 80 442.5Q103 466 136 466Q171 466 194 442.5Q217 419 217 384Q217 351 194 328.5Q171 306 136 306Q103 306 80 328.5Q57 351 57 384Z" glyph-name="semicolon" horiz-adv-x="288" unicode=";" /><glyph d="M114 484V411H13V589H433V506L229 0H106L301 484Z" glyph-name="seven" horiz-adv-x="456" unicode="7" /><glyph d="M388 437Q374 472 349 487Q324 502 290 502Q224 502 191 441Q158 380 158 267H161Q174 324 210 349.5Q246 375 297 375Q341 375 375.5 360.5Q410 346 433.5 320.5Q457 295 469.5 261Q482 227 482 188Q482 144 468 107.5Q454 71 427 44.5Q400 18 360.5 3Q321 -12 270 -12Q168 -12 107.5 60.5Q47 133 47 273Q47 358 66.5 419.5Q86 481 120 521.5Q154 562 198.5 581.5Q243 601 293 601Q359 601 404.5 573.5Q450 546 473 495ZM180 181Q180 136 206.5 109Q233 82 275 82Q317 82 343.5 109Q370 136 370 181Q370 228 343.5 254.5Q317 281 275 281Q233 281 206.5 254.5Q180 228 180 181Z" glyph-name="six" horiz-adv-x="519" unicode="6" /><glyph d="M283 668H389L113 -203H10Z" glyph-name="slash" horiz-adv-x="419" unicode="/" /><glyph glyph-name="space" horiz-adv-x="221" unicode=" " /><glyph d="M239 256Q241 242 243 228Q245 214 245 200Q245 161 228 135Q211 109 188 99H328Q351 99 372 106.5Q393 114 403 145L491 93Q482 46 443.5 23Q405 0 349 0H37V100H72Q97 100 115 120Q133 140 133 185Q133 202 129.5 219.5Q126 237 121 256H40V330H99Q92 355 87 381Q82 407 82 436Q82 479 97 510Q112 541 137 561Q162 581 194.5 591Q227 601 263 601Q333 601 381 571Q429 541 440 469L330 436Q324 466 311 484.5Q298 503 267 503Q238 503 220.5 485.5Q203 468 203 429Q203 406 208 381Q213 356 221 330H353V256Z" glyph-name="sterling" horiz-adv-x="497" unicode="&#163;" /><glyph d="M355 17Q300 -12 223 -12Q156 -12 116.5 22Q77 56 77 131V369H10V462H78V560L197 574V462H334V369H196V157Q196 119 211 104.5Q226 90 254 90Q276 90 295 96.5Q314 103 334 117Z" glyph-name="t" horiz-adv-x="370" unicode="t" /><glyph d="M10 302H77V369H10V462H78V560L197 574V462H334V369H196V302H334V214H196V157Q196 119 211 104.5Q226 90 254 90Q276 90 295 96.5Q314 103 334 117L355 17Q300 -12 223 -12Q156 -12 116.5 22Q77 56 77 131V214H10Z" glyph-name="tbar" horiz-adv-x="370" unicode="&#359;" /><glyph d="M355 17Q300 -12 223 -12Q156 -12 116.5 22Q77 56 77 131V369H10V462H78V560L197 574V462H334V369H196V157Q196 119 211 104.5Q226 90 254 90Q276 90 295 96.5Q314 103 334 117ZM329 517H243L259 706H385Z" glyph-name="tcaron" horiz-adv-x="370" unicode="&#357;" /><glyph d="M355 17Q300 -12 223 -12Q156 -12 116.5 22Q77 56 77 131V369H10V462H78V560L197 574V462H334V369H196V157Q196 119 211 104.5Q226 90 254 90Q276 90 295 96.5Q314 103 334 117ZM269 -141Q269 -201 233.5 -226.5Q198 -252 134 -252V-210Q165 -209 181.5 -201Q198 -193 198 -170Q170 -175 149.5 -161Q129 -147 129 -117Q129 -87 148 -71.5Q167 -56 195 -56Q227 -56 248 -79.5Q269 -103 269 -141Z" glyph-name="tcommaaccent" horiz-adv-x="370" unicode="&#355;" /><glyph d="M185 186Q185 155 194 133.5Q203 112 216.5 99Q230 86 247 80.5Q264 75 281 75Q304 75 324.5 84.5Q345 94 360 113.5Q375 133 384 162Q393 191 393 231Q393 307 365.5 342Q338 377 290 377Q269 377 250 369Q231 361 216.5 346Q202 331 193.5 308.5Q185 286 185 257ZM185 -203H66V668H185V377Q204 430 245 451.5Q286 473 334 473Q419 473 466 413.5Q513 354 513 242Q513 186 500 139.5Q487 93 461.5 59.5Q436 26 399 7Q362 -12 315 -12Q261 -12 228.5 10Q196 32 185 61Z" glyph-name="thorn" horiz-adv-x="549" unicode="&#254;" /><glyph d="M275 302Q356 296 394.5 255Q433 214 433 148Q433 109 417 79.5Q401 50 372.5 29.5Q344 9 304.5 -1.5Q265 -12 218 -12Q131 -12 76.5 24.5Q22 61 11 127L126 164Q137 79 224 79Q263 79 288 98.5Q313 118 313 158Q313 182 305 199.5Q297 217 278 229Q259 241 227.5 247Q196 253 150 254V344Q200 347 229.5 355.5Q259 364 274.5 376Q290 388 294.5 404Q299 420 299 438Q299 469 279 484.5Q259 500 227 500Q196 500 175.5 482.5Q155 465 150 427L34 456Q44 522 95 561.5Q146 601 232 601Q272 601 307 592Q342 583 367.5 564.5Q393 546 407.5 518Q422 490 422 452Q422 391 387 353Q352 315 275 307Z" glyph-name="three" horiz-adv-x="473" unicode="3" /><glyph d="M193 -24Q244 -28 267.5 -51.5Q291 -75 291 -114Q291 -161 252.5 -185.5Q214 -210 148 -210Q91 -210 54.5 -188.5Q18 -167 10 -129L85 -99Q90 -120 106.5 -132.5Q123 -145 149 -145Q170 -145 183.5 -136Q197 -127 197 -107Q197 -97 193 -87.5Q189 -78 178.5 -71Q168 -64 150 -59.5Q132 -55 103 -55V-1Q130 0 146.5 4Q163 8 173 15Q183 22 186.5 30.5Q190 39 190 49Q190 68 179 77.5Q168 87 150 87Q130 87 116.5 76.5Q103 66 99 46L26 73Q34 114 69 136Q104 158 158 158Q209 158 244 135.5Q279 113 279 65Q279 -7 193 -22Z" glyph-name="three.inf" horiz-adv-x="322" unicode="&#58740;" /><glyph d="M217 415Q268 411 291.5 387.5Q315 364 315 325Q315 278 276.5 253.5Q238 229 172 229Q115 229 78.5 250.5Q42 272 34 310L109 340Q114 319 130.5 306.5Q147 294 173 294Q194 294 207.5 303Q221 312 221 332Q221 342 217 351.5Q213 361 202.5 368Q192 375 174 379.5Q156 384 127 384V438Q154 439 170.5 443Q187 447 197 454Q207 461 210.5 469.5Q214 478 214 488Q214 507 203 516.5Q192 526 174 526Q154 526 140.5 515.5Q127 505 123 485L50 512Q58 553 93 575Q128 597 182 597Q233 597 268 574.5Q303 552 303 504Q303 432 217 417ZM549 589H624L317 0H244ZM706 75H530V138L707 353H796V141H848V75H796V0H706ZM708 210Q708 224 708.5 236.5Q709 249 710 259Q711 270 712 281H708Q705 274 701 265Q697 257 691 248Q685 239 677 228L642 184Q633 173 625 164.5Q617 156 610 150Q602 143 595 138V134Q601 135 609 136Q616 137 626.5 138Q637 139 651 139H708Z" glyph-name="threequarters" horiz-adv-x="868" unicode="&#190;" /><glyph d="M193 415Q244 411 267.5 387.5Q291 364 291 325Q291 278 252.5 253.5Q214 229 148 229Q91 229 54.5 250.5Q18 272 10 310L85 340Q90 319 106.5 306.5Q123 294 149 294Q170 294 183.5 303Q197 312 197 332Q197 342 193 351.5Q189 361 178.5 368Q168 375 150 379.5Q132 384 103 384V438Q130 439 146.5 443Q163 447 173 454Q183 461 186.5 469.5Q190 478 190 488Q190 507 179 516.5Q168 526 150 526Q130 526 116.5 515.5Q103 505 99 485L26 512Q34 553 69 575Q104 597 158 597Q209 597 244 574.5Q279 552 279 504Q279 432 193 417Z" glyph-name="threesuperior" horiz-adv-x="322" unicode="&#179;" /><glyph d="M323 524Q298 524 283 530Q268 536 249 547Q228 559 216 565.5Q204 572 191 572Q175 572 165.5 560.5Q156 549 160 523H92Q80 550 81 576.5Q82 603 93.5 623.5Q105 644 126 656.5Q147 669 175 669Q198 669 214 662.5Q230 656 247 646Q269 633 281 626.5Q293 620 306 620Q320 620 328.5 630Q337 640 333 667H404Q416 638 415.5 612Q415 586 404 566.5Q393 547 372.5 535.5Q352 524 323 524Z" glyph-name="tilde" horiz-adv-x="497" unicode="&#732;" /><glyph d="M323 650Q298 650 283 656Q268 662 249 673Q228 685 216 691.5Q204 698 191 698Q175 698 165.5 687Q156 676 160 650H92Q80 677 81 703Q82 729 93.5 750Q105 771 126 783.5Q147 796 175 796Q198 796 214 790Q230 784 247 774Q269 761 281 754.5Q293 748 306 748Q320 748 328.5 758Q337 768 333 795H404Q416 766 415.5 739.5Q415 713 404 693Q393 673 372.5 661.5Q352 650 323 650Z" glyph-name="tilde.cap" horiz-adv-x="497" unicode="&#58404;" /><glyph d="M90 341V532H20V589H229V532H158V341ZM493 341V487H488L445 397H399L356 487H351V341H282V589H361L421 474H423L483 589H561V341Z" glyph-name="trademark" horiz-adv-x="605" unicode="&#8482;" /><glyph d="M440 0H38V92Q100 143 149.5 184.5Q199 226 234 263.5Q269 301 288 336.5Q307 372 307 411Q307 452 287 475.5Q267 499 227 499Q189 499 170 478Q151 457 151 426Q151 403 162 383.5Q173 364 190 349L89 300Q67 319 49 353Q31 387 31 429Q31 462 42.5 493Q54 524 78 548Q102 572 139.5 586.5Q177 601 230 601Q275 601 312 590.5Q349 580 376 557.5Q403 535 417.5 499.5Q432 464 432 415Q432 356 406.5 307.5Q381 259 343.5 221.5Q306 184 264 156Q222 128 190 109V105H440Z" glyph-name="two" horiz-adv-x="478" unicode="2" /><glyph d="M301 -203H27V-143Q70 -113 101.5 -89Q133 -65 153.5 -44.5Q174 -24 184 -5Q194 14 194 35Q194 80 150 80Q127 80 112 64Q97 48 97 16L22 47Q23 68 31.5 88Q40 108 57.5 123.5Q75 139 100.5 148.5Q126 158 160 158Q214 158 251 130.5Q288 103 288 46Q288 11 273 -16.5Q258 -44 236 -65.5Q214 -87 188 -103Q162 -119 141 -129V-133H301Z" glyph-name="two.inf" horiz-adv-x="325" unicode="&#58739;" /><glyph d="M301 236H27V296Q70 326 101.5 350Q133 374 153.5 394.5Q174 415 184 434Q194 453 194 474Q194 519 150 519Q127 519 112 503Q97 487 97 455L22 486Q23 507 31.5 527Q40 547 57.5 562.5Q75 578 100.5 587.5Q126 597 160 597Q214 597 251 569.5Q288 542 288 485Q288 450 273 422.5Q258 395 236 373.5Q214 352 188 336Q162 320 141 310V306H301Z" glyph-name="twosuperior" horiz-adv-x="325" unicode="&#178;" /><glyph d="M340 85Q326 37 292 12.5Q258 -12 197 -12Q135 -12 96.5 22.5Q58 57 58 138V462H177V168Q177 123 193 100.5Q209 78 247 78Q265 78 281 85.5Q297 93 310 108.5Q323 124 330.5 148.5Q338 173 338 206V462H457V0H354Z" glyph-name="u" horiz-adv-x="523" unicode="u" /><glyph d="M340 85Q326 37 292 12.5Q258 -12 197 -12Q135 -12 96.5 22.5Q58 57 58 138V462H177V168Q177 123 193 100.5Q209 78 247 78Q265 78 281 85.5Q297 93 310 108.5Q323 124 330.5 148.5Q338 173 338 206V462H457V0H354ZM196 527 267 678H419L303 527Z" glyph-name="uacute" horiz-adv-x="523" unicode="&#250;" /><glyph d="M340 85Q326 37 292 12.5Q258 -12 197 -12Q135 -12 96.5 22.5Q58 57 58 138V462H177V168Q177 123 193 100.5Q209 78 247 78Q265 78 281 85.5Q297 93 310 108.5Q323 124 330.5 148.5Q338 173 338 206V462H457V0H354ZM257 522Q220 522 192.5 533.5Q165 545 147 565.5Q129 586 120.5 614Q112 642 112 674H202Q203 644 213 626Q223 608 257 608Q292 608 301.5 626Q311 644 313 674H403Q403 642 394 614Q385 586 367 565.5Q349 545 321.5 533.5Q294 522 257 522Z" glyph-name="ubreve" horiz-adv-x="523" unicode="&#365;" /><glyph d="M340 85Q326 37 292 12.5Q258 -12 197 -12Q135 -12 96.5 22.5Q58 57 58 138V462H177V168Q177 123 193 100.5Q209 78 247 78Q265 78 281 85.5Q297 93 310 108.5Q323 124 330.5 148.5Q338 173 338 206V462H457V0H354ZM294 680 426 525H313L281 562Q273 570 269 576.5Q265 583 263 588Q260 593 260 597H255Q255 593 252 588Q247 578 234 562L202 525H89L221 680Z" glyph-name="ucircumflex" horiz-adv-x="523" unicode="&#251;" /><glyph d="M340 85Q326 37 292 12.5Q258 -12 197 -12Q135 -12 96.5 22.5Q58 57 58 138V462H177V168Q177 123 193 100.5Q209 78 247 78Q265 78 281 85.5Q297 93 310 108.5Q323 124 330.5 148.5Q338 173 338 206V462H457V0H354ZM80 596Q80 630 100.5 648Q121 666 149 666Q179 666 199.5 648Q220 630 220 596Q220 563 199.5 544.5Q179 526 149 526Q121 526 100.5 544.5Q80 563 80 596ZM291 595Q291 629 311 647Q331 665 360 665Q390 665 410 647Q430 629 430 595Q430 563 410 544.5Q390 526 360 526Q331 526 311 544.5Q291 563 291 595Z" glyph-name="udieresis" horiz-adv-x="523" unicode="&#252;" /><glyph d="M340 85Q326 37 292 12.5Q258 -12 197 -12Q135 -12 96.5 22.5Q58 57 58 138V462H177V168Q177 123 193 100.5Q209 78 247 78Q265 78 281 85.5Q297 93 310 108.5Q323 124 330.5 148.5Q338 173 338 206V462H457V0H354ZM212 527 96 678H248L320 527Z" glyph-name="ugrave" horiz-adv-x="523" unicode="&#249;" /><glyph d="M340 85Q326 37 292 12.5Q258 -12 197 -12Q135 -12 96.5 22.5Q58 57 58 138V462H177V168Q177 123 193 100.5Q209 78 247 78Q265 78 281 85.5Q297 93 310 108.5Q323 124 330.5 148.5Q338 173 338 206V462H457V0H354ZM129 527 184 678H315L215 527ZM288 527 360 678H497L381 527Z" glyph-name="uhungarumlaut" horiz-adv-x="523" unicode="&#369;" /><glyph d="M340 85Q326 37 292 12.5Q258 -12 197 -12Q135 -12 96.5 22.5Q58 57 58 138V462H177V168Q177 123 193 100.5Q209 78 247 78Q265 78 281 85.5Q297 93 310 108.5Q323 124 330.5 148.5Q338 173 338 206V462H457V0H354ZM116 545V642H399V545Z" glyph-name="umacron" horiz-adv-x="523" unicode="&#363;" /><glyph d="M50 -22H431V-112H50Z" glyph-name="underscore" horiz-adv-x="481" unicode="_" /><glyph d="M261 -103Q261 -81 268.5 -62Q276 -43 289 -28Q302 -13 318 -2Q334 9 351 17L340 87Q326 40 292 14Q258 -12 197 -12Q135 -12 96.5 22.5Q58 57 58 138V462H177V168Q177 123 193 100.5Q209 78 246 78Q282 78 310 109.5Q338 141 338 208V462H457V0Q415 -2 387.5 -22.5Q360 -43 360 -81Q360 -105 372.5 -119Q385 -133 409 -133Q447 -133 475 -99L504 -159Q463 -211 383 -211Q358 -211 336 -204.5Q314 -198 297.5 -185Q281 -172 271 -151.5Q261 -131 261 -103Z" glyph-name="uogonek" horiz-adv-x="523" unicode="&#371;" /><glyph d="M340 85Q326 37 292 12.5Q258 -12 197 -12Q135 -12 96.5 22.5Q58 57 58 138V462H177V168Q177 123 193 100.5Q209 78 247 78Q265 78 281 85.5Q297 93 310 108.5Q323 124 330.5 148.5Q338 173 338 206V462H457V0H354ZM258 511Q204 511 175.5 542.5Q147 574 147 619Q147 640 155 659Q163 678 177.5 692Q192 706 212.5 714.5Q233 723 258 723Q283 723 303.5 714.5Q324 706 338.5 692Q353 678 361 659Q369 640 369 619Q369 574 340.5 542.5Q312 511 258 511ZM258 669Q234 669 220.5 654.5Q207 640 207 617Q207 597 220 582.5Q233 568 258 568Q283 568 296 582.5Q309 597 309 617Q309 640 295.5 654.5Q282 669 258 669Z" glyph-name="uring" horiz-adv-x="523" unicode="&#367;" /><glyph d="M340 85Q326 37 292 12.5Q258 -12 197 -12Q135 -12 96.5 22.5Q58 57 58 138V462H177V168Q177 123 193 100.5Q209 78 247 78Q265 78 281 85.5Q297 93 310 108.5Q323 124 330.5 148.5Q338 173 338 206V462H457V0H354ZM332 524Q307 524 292 530Q277 536 258 547Q237 559 225 565.5Q213 572 200 572Q184 572 174.5 560.5Q165 549 169 523H101Q89 550 90 576.5Q91 603 102.5 623.5Q114 644 135 656.5Q156 669 184 669Q207 669 223 662.5Q239 656 256 646Q278 633 290 626.5Q302 620 315 620Q329 620 337.5 630Q346 640 342 667H413Q425 638 424.5 612Q424 586 413 566.5Q402 547 381.5 535.5Q361 524 332 524Z" glyph-name="utilde" horiz-adv-x="523" unicode="&#361;" /><glyph d="M4 462H131L200 237Q209 207 215 180Q221 153 225 133Q229 109 233 88H237Q240 109 244 133Q248 153 254.5 180Q261 207 270 237L340 462H463L299 0H166Z" glyph-name="v" horiz-adv-x="467" unicode="v" /><glyph d="M465 260Q475 225 480.5 193.5Q486 162 490 139Q494 112 496 88H500Q501 111 505 138Q508 161 513 192.5Q518 224 526 259L576 462H695L573 0H431L380 183Q372 212 367 239.5Q362 267 359 287Q355 311 354 331H350Q349 311 345 287Q342 267 337.5 239.5Q333 212 325 182L279 0H138L10 462H132L185 259Q194 224 199.5 193Q205 162 208 139Q212 112 214 88H218Q219 111 223 139Q226 162 231.5 193.5Q237 225 246 260L298 462H410Z" glyph-name="w" horiz-adv-x="705" unicode="w" /><glyph d="M465 260Q475 225 480.5 193.5Q486 162 490 139Q494 112 496 88H500Q501 111 505 138Q508 161 513 192.5Q518 224 526 259L576 462H695L573 0H431L380 183Q372 212 367 239.5Q362 267 359 287Q355 311 354 331H350Q349 311 345 287Q342 267 337.5 239.5Q333 212 325 182L279 0H138L10 462H132L185 259Q194 224 199.5 193Q205 162 208 139Q212 112 214 88H218Q219 111 223 139Q226 162 231.5 193.5Q237 225 246 260L298 462H410ZM290 527 361 678H513L397 527Z" glyph-name="wacute" horiz-adv-x="705" unicode="&#7811;" /><glyph d="M465 260Q475 225 480.5 193.5Q486 162 490 139Q494 112 496 88H500Q501 111 505 138Q508 161 513 192.5Q518 224 526 259L576 462H695L573 0H431L380 183Q372 212 367 239.5Q362 267 359 287Q355 311 354 331H350Q349 311 345 287Q342 267 337.5 239.5Q333 212 325 182L279 0H138L10 462H132L185 259Q194 224 199.5 193Q205 162 208 139Q212 112 214 88H218Q219 111 223 139Q226 162 231.5 193.5Q237 225 246 260L298 462H410ZM389 680 521 525H408L376 562Q368 570 364 576.5Q360 583 358 588Q355 593 355 597H350Q350 593 347 588Q342 578 329 562L297 525H184L316 680Z" glyph-name="wcircumflex" horiz-adv-x="705" unicode="&#373;" /><glyph d="M465 260Q475 225 480.5 193.5Q486 162 490 139Q494 112 496 88H500Q501 111 505 138Q508 161 513 192.5Q518 224 526 259L576 462H695L573 0H431L380 183Q372 212 367 239.5Q362 267 359 287Q355 311 354 331H350Q349 311 345 287Q342 267 337.5 239.5Q333 212 325 182L279 0H138L10 462H132L185 259Q194 224 199.5 193Q205 162 208 139Q212 112 214 88H218Q219 111 223 139Q226 162 231.5 193.5Q237 225 246 260L298 462H410ZM175 596Q175 630 195.5 648Q216 666 244 666Q274 666 294.5 648Q315 630 315 596Q315 563 294.5 544.5Q274 526 244 526Q216 526 195.5 544.5Q175 563 175 596ZM386 595Q386 629 406 647Q426 665 455 665Q485 665 505 647Q525 629 525 595Q525 563 505 544.5Q485 526 455 526Q426 526 406 544.5Q386 563 386 595Z" glyph-name="wdieresis" horiz-adv-x="705" unicode="&#7813;" /><glyph d="M465 260Q475 225 480.5 193.5Q486 162 490 139Q494 112 496 88H500Q501 111 505 138Q508 161 513 192.5Q518 224 526 259L576 462H695L573 0H431L380 183Q372 212 367 239.5Q362 267 359 287Q355 311 354 331H350Q349 311 345 287Q342 267 337.5 239.5Q333 212 325 182L279 0H138L10 462H132L185 259Q194 224 199.5 193Q205 162 208 139Q212 112 214 88H218Q219 111 223 139Q226 162 231.5 193.5Q237 225 246 260L298 462H410ZM307 527 191 678H343L415 527Z" glyph-name="wgrave" horiz-adv-x="705" unicode="&#7809;" /><glyph d="M275 92Q261 115 253 130Q245 145 241 155Q237 166 236 174H232Q230 166 225 155Q220 145 212.5 130Q205 115 191 92L135 0H7L157 231L16 462H154L196 386Q210 360 217.5 343.5Q225 327 230 316Q235 304 237 297H241Q243 304 248 316Q253 327 261 343.5Q269 360 283 386L328 462H457L314 235L465 0H332Z" glyph-name="x" horiz-adv-x="472" unicode="x" /><glyph d="M201 237Q211 203 217 176Q223 149 227 129Q231 106 234 89H238Q241 106 245 129Q249 149 255 176Q261 203 272 237L340 462H465L287 -40Q268 -93 246.5 -126Q225 -159 200 -177Q175 -195 146 -201.5Q117 -208 83 -208Q64 -208 43.5 -205Q23 -202 6 -197L22 -93Q49 -108 82 -108Q116 -108 137 -90Q158 -72 175 -26L4 462H134Z" glyph-name="y" horiz-adv-x="469" unicode="y" /><glyph d="M201 237Q211 203 217 176Q223 149 227 129Q231 106 234 89H238Q241 106 245 129Q249 149 255 176Q261 203 272 237L340 462H465L287 -40Q268 -93 246.5 -126Q225 -159 200 -177Q175 -195 146 -201.5Q117 -208 83 -208Q64 -208 43.5 -205Q23 -202 6 -197L22 -93Q49 -108 82 -108Q116 -108 137 -90Q158 -72 175 -26L4 462H134ZM175 527 246 678H398L282 527Z" glyph-name="yacute" horiz-adv-x="469" unicode="&#253;" /><glyph d="M201 237Q211 203 217 176Q223 149 227 129Q231 106 234 89H238Q241 106 245 129Q249 149 255 176Q261 203 272 237L340 462H465L287 -40Q268 -93 246.5 -126Q225 -159 200 -177Q175 -195 146 -201.5Q117 -208 83 -208Q64 -208 43.5 -205Q23 -202 6 -197L22 -93Q49 -108 82 -108Q116 -108 137 -90Q158 -72 175 -26L4 462H134ZM274 680 406 525H293L261 562Q253 570 249 576.5Q245 583 243 588Q240 593 240 597H235Q235 593 232 588Q227 578 214 562L182 525H69L201 680Z" glyph-name="ycircumflex" horiz-adv-x="469" unicode="&#375;" /><glyph d="M201 237Q211 203 217 176Q223 149 227 129Q231 106 234 89H238Q241 106 245 129Q249 149 255 176Q261 203 272 237L340 462H465L287 -40Q268 -93 246.5 -126Q225 -159 200 -177Q175 -195 146 -201.5Q117 -208 83 -208Q64 -208 43.5 -205Q23 -202 6 -197L22 -93Q49 -108 82 -108Q116 -108 137 -90Q158 -72 175 -26L4 462H134ZM60 596Q60 630 80.5 648Q101 666 129 666Q159 666 179.5 648Q200 630 200 596Q200 563 179.5 544.5Q159 526 129 526Q101 526 80.5 544.5Q60 563 60 596ZM271 595Q271 629 291 647Q311 665 340 665Q370 665 390 647Q410 629 410 595Q410 563 390 544.5Q370 526 340 526Q311 526 291 544.5Q271 563 271 595Z" glyph-name="ydieresis" horiz-adv-x="469" unicode="&#255;" /><glyph d="M336 187V0H215V187H65V239H197L172 287H65V339H145L17 589H155L231 433Q245 404 253 382.5Q261 361 266 346Q271 328 274 315H278Q280 329 285 347Q290 362 298 383.5Q306 405 320 433L394 589H522L400 339H500V287H375L352 239H500V187Z" glyph-name="yen" horiz-adv-x="539" unicode="&#165;" /><glyph d="M201 237Q211 203 217 176Q223 149 227 129Q231 106 234 89H238Q241 106 245 129Q249 149 255 176Q261 203 272 237L340 462H465L287 -40Q268 -93 246.5 -126Q225 -159 200 -177Q175 -195 146 -201.5Q117 -208 83 -208Q64 -208 43.5 -205Q23 -202 6 -197L22 -93Q49 -108 82 -108Q116 -108 137 -90Q158 -72 175 -26L4 462H134ZM192 527 76 678H228L300 527Z" glyph-name="ygrave" horiz-adv-x="469" unicode="&#7923;" /><glyph d="M223 167Q209 148 198 134.5Q187 121 179 112Q169 101 162 94V90Q170 91 182 92Q193 93 208 93.5Q223 94 244 94H390V0H26V71L180 293Q193 311 204.5 325Q216 339 224 348Q234 359 241 366V370Q233 369 221 368Q210 367 194.5 366.5Q179 366 159 366H35V462H381V386Z" glyph-name="z" horiz-adv-x="416" unicode="z" /><glyph d="M223 167Q209 148 198 134.5Q187 121 179 112Q169 101 162 94V90Q170 91 182 92Q193 93 208 93.5Q223 94 244 94H390V0H26V71L180 293Q193 311 204.5 325Q216 339 224 348Q234 359 241 366V370Q233 369 221 368Q210 367 194.5 366.5Q179 366 159 366H35V462H381V386ZM148 527 219 678H371L255 527Z" glyph-name="zacute" horiz-adv-x="416" unicode="&#378;" /><glyph d="M223 167Q209 148 198 134.5Q187 121 179 112Q169 101 162 94V90Q170 91 182 92Q193 93 208 93.5Q223 94 244 94H390V0H26V71L180 293Q193 311 204.5 325Q216 339 224 348Q234 359 241 366V370Q233 369 221 368Q210 367 194.5 366.5Q179 366 159 366H35V462H381V386ZM179 525 47 680H160L192 643Q205 627 210 617Q213 612 213 608H218Q218 612 221 617Q223 622 227 628.5Q231 635 239 643L271 680H384L252 525Z" glyph-name="zcaron" horiz-adv-x="416" unicode="&#382;" /><glyph d="M223 167Q209 148 198 134.5Q187 121 179 112Q169 101 162 94V90Q170 91 182 92Q193 93 208 93.5Q223 94 244 94H390V0H26V71L180 293Q193 311 204.5 325Q216 339 224 348Q234 359 241 366V370Q233 369 221 368Q210 367 194.5 366.5Q179 366 159 366H35V462H381V386ZM135 602Q135 636 157 655Q179 674 209 674Q242 674 264 655Q286 636 286 602Q286 569 264 550Q242 531 209 531Q179 531 157 550Q135 569 135 602Z" glyph-name="zdotaccent" horiz-adv-x="416" unicode="&#380;" /><glyph d="M288 -12Q229 -12 184 11.5Q139 35 108.5 76Q78 117 62.5 173Q47 229 47 295Q47 358 63.5 413.5Q80 469 111 511Q142 553 187 577Q232 601 288 601Q344 601 389 577Q434 553 465 511Q496 469 512.5 413.5Q529 358 529 295Q529 229 513.5 173Q498 117 467.5 76Q437 35 392 11.5Q347 -12 288 -12ZM287 493Q228 493 196 437.5Q164 382 164 291Q164 247 172 210Q180 173 196 146.5Q212 120 235 105Q258 90 287 90Q317 90 340 105Q363 120 378.5 146.5Q394 173 402.5 210Q411 247 411 291Q411 382 379 437.5Q347 493 287 493Z" glyph-name="zero" horiz-adv-x="576" unicode="0" /></font>
</defs>
</svg>
